ExtraTorrent

Login   |   Register   |   Home
Loading...
Browse Torrents
| Search Cloud | | | | | FAQ  
» » Titanic's Final Moments

Download Titanic's Final Moments extratorrent


Download torrent: Download Magnet Titanic's Final Moments
Info hash EE9ADF5001F11C4FB50BCC5DF10482144FE2779F
Torrent ID13952807
Comments: Sort Read Comments
Category: Movies
Health:
 Seeders: 1 |  Leechers: n/a |  Completed: 39
Torrent language: English English
Total Size: 108.0 MB
Uploader: tornet Trusted Uploader Site Friend Superman Sun
Torrent added: 07-12-2018, 00:45:07
Views: 42



Extratorrent Download Torrent Sinking of the RMS Titanic - Wikipedia
https://en.wikipedia.org/wiki/Sinking_of_the_RMS_Titanic
RMS «Titanic»s forlis – Wikipedia
https://no.wikipedia.org/wiki/RMS_«Titanic»s_forlis
Titanic facts - agenciapyme
eszlinger.com/titanic/titanfacts.html
Legends and myths regarding RMS Titanic…
https://en.wikipedia.org/wiki/Legends_and_myths_regarding_RMS_Titanic
BBC - History - Thomas Andrews
www.bbc.co.uk/history/people/thomas_andrews
John Chatterton Biography | Shadow Diver…
https://www.johnchatterton.com/john-chatterton-biography
The Sinking of Titanic — Ultimate Titanic
www.ultimatetitanic.com/the-sinking
Whatever Happened to Olympic, Titanic's…
owlcation.com › Humanities › History
This Magic Moment - The Sopranos
www.dga.org/.../1502-Spring-2015/Shot-to-Remember-The-Sopranos.aspx
The Secret of How the Titanic Sank |…
https://www.usnews.com/.../09/25/the-secret-of-how-the-titanic-sunk





General

Complete name Titanic's Final Moments - The True Story.mp4

Format : MPEG-4
Format profile : Base Media
Codec ID : isom (isom/iso2/avc1/mp41)
File size : 108 MiB
Duration : 46 min 38 s
Overall bit rate : 324 kb/s
Writing application : Lavf54.63.104
Video
ID : 1
Format : AVC
Format/Info : Advanced Video Codec
Format profile : [email protected]
Format settings : CABAC / 3 Ref Frames
Format settings, CABAC : Yes
Format settings, ReFrames : 3 frames
Codec ID : avc1
Codec ID/Info : Advanced Video Coding
Duration : 46 min 38 s
Bit rate : 192 kb/s
Width : 640 pixels
Height : 352 pixels
Display aspect ratio : 16:9
Frame rate mode : Constant
Frame rate : 25.000 FPS
Color space : YUV
Chroma subsampling : 4:2:0
Bit depth : 8 bits
Scan type : Progressive
Bits/(Pixel*Frame) : 0.034
Stream size : 64.0 MiB (59%)
Codec configuration box : avcC
Audio
ID : 2
Format : AAC LC
Format/Info : Advanced Audio Codec Low Complexity
Codec ID : mp4a-40-2
Duration : 46 min 38 s
Bit rate mode : Constant
Bit rate : 126 kb/s
Channel(s) : 2 channels
Channel layout : L R
Sampling rate : 44.1 kHz
Frame rate : 43.066 FPS (1024 SPF)
Compression mode : Lossy
Stream size : 41.9 MiB (39%)
Default : Yes
Alternate group : 1

Please ...Seed... Thank you





   


Related Torrents
Browse Movies Torrents Related Torrents added recently in our database RSS  
Added  Size  Sort S  Sort L  Sort Health
Download Magnet English  Fall_City_2018_1080p_AMZN_WEB-DL_DDP5_1_x265-4EVERDOWNS in Movies, by 4everdowns 10 minutes 1.2 GB 75096 11090
Download Magnet English  Wild_River_1960_BRRip_XviD_MP3-XVID in Movies, by Trige 10 minutes 1.4 GB 94720 93750
Download Magnet English  Meteor_Garden_S01E18_720p_WEB_x264-CRiMSON_[eztv] in TV, by EZTVag 10 minutes 725.8 MB 4294 2071
Download Magnet English  Faith_Filled_Christmas_(2017)_720p_Web_X264_Solar in Movies, by Solarwinds 10 minutes 945.7 MB 99475 51225
Download Magnet English  Meteor_Garden_S01E11_720p_WEB_x264-CRiMSON_[eztv] in TV, by EZTVag 15 minutes 850.7 MB 56301 58926
Download Magnet English  Meteor_Garden_S01E17_720p_WEB_x264-CRiMSON_[eztv] in TV, by EZTVag 15 minutes 1.1 GB 85919 45817
Download Magnet English  Meteor_Garden_S01E15_720p_WEB_x264-CRiMSON_[eztv] in TV, by EZTVag 20 minutes 892.0 MB 9853 92036
Download Magnet English  Sand_Sharks_2011_720p_BluRay_H264_AAC in Movies, by Trige 20 minutes 1.1 GB 39547 71818
Download Magnet English  Meteor_Garden_S01E12_720p_WEB_x264-CRiMSON_[eztv] in TV, by EZTVag 25 minutes 788.1 MB 38276 7989
Download Magnet English  Travelers_-_Season_3_-_Mp4_x264_AC3_1080p in TV, by TruthPhoenix 25 minutes 12.1 GB 53037 93322




Recent Searches

Home - Browse Torrents - Upload Torrent - Recent Torrents - Login - Register - FAQ

Can't load ExtraTorrent.Network
2006-2018 ExtraTorrent.Network