Website Shifted Kindly Click on Any Button to Enter This Site..





Loading...

                                                                                                                                 .







































































































































































ExtraTorrent

Login   |   Register   |   Home
Browse Torrents
| Search Cloud | | | | | FAQ  
» » The Nun (2018) 720p BluRay x264 Dual Audio [Hindi DD5 1 - English DD5 1] - ESUB ~ Ranvijay

Download The Nun (2018) 720p BluRay x264 Dual Audio [Hindi DD5 1 - English DD5 1] - ESUB ~ Ranvijay extratorrent


Download torrent: Download Magnet The Nun (2018) 720p BluRay x264 Dual Audio [Hindi DD5 1 - English DD5 1] - ESUB ~ Ranvijay
Info hash A84867FF38E5143B6F55024794276A2239175C56
Torrent ID13952591
Comments: Sort Read Comments
Category: Movies
Health:
 Seeders: 1 |  Leechers: 5 |  Completed: 2
Torrent language: Hindi Hindi
Total Size: 1.5 GB
Uploader: TheFighter Trusted Uploader Site Friend Superman Sun
Torrent added: 06-12-2018, 16:40:06
Views: 76



Extratorrent Download Torrent











The Nun (2018) 720p BluRay x264 Dual Audio [Hindi DD5.1 - English DD5.1] - ESUB ~ Ranvijay

Buy RDP Online




Format : Matroska
Format version : Version 4 / Version 2
File size : 1.47 GiB
Duration : 1 h 36 min
Overall bit rate : 2 181 kb/s
Movie name : The Nun (2018) 720p BluRay x264 Dual Audio [Hindi DD5.1 - English DD5.1] - ESUB ~ Ranvijay

Video
ID : 1
Format : AVC
Format/Info : Advanced Video Codec
Duration : 1 h 36 min
Bit rate : 1 500 kb/s
Width : 1 280 pixels
Height : 536 pixels
Display aspect ratio : 2.40:1
Frame rate mode : Constant
Frame rate : 23.976 (24000/1001) FPS
Color space : YUV
Chroma subsampling : 4:2:0
Bit depth : 8 bits
Scan type : Progressive
Bits/(Pixel*Frame) : 0.091
Stream size : 1.01 GiB (69%)
Title : ~Ranvijay~

Audio #1
ID : 2
Format : AC-3
Format/Info : Audio Coding 3
Codec ID : A_AC3
Duration : 1 h 36 min
Bit rate mode : Constant
Bit rate : 448 kb/s
Channel(s) : 6 channels
Channel positions : Front: L C R, Side: L R, LFE
Sampling rate : 48.0 kHz
Frame rate : 31.250 FPS (1536 SPF)
Bit depth : 16 bits
Compression mode : Lossy
Stream size : 309 MiB (21%)
Title : ~Ranvijay~
Language : Hindi
Service kind : Complete Main
Default : Yes
Forced : Yes

Audio #2
ID : 3
Format : AC-3
Format/Info : Audio Coding 3
Codec ID : A_AC3
Duration : 1 h 36 min
Bit rate mode : Constant
Bit rate : 224 kb/s
Channel(s) : 6 channels
Channel positions : Front: L C R, Side: L R, LFE
Sampling rate : 48.0 kHz
Frame rate : 31.250 FPS (1536 SPF)
Bit depth : 16 bits
Compression mode : Lossy
Stream size : 155 MiB (10%)
Title : ~Ranvijay~
Language : English
Service kind : Complete Main
Default : No
Forced : No

Text
ID : 4
Format : PGS
Muxing mode : zlib
Codec ID : S_HDMV/PGS
Codec ID/Info : Picture based subtitle format used on BDs/HD-DVDs
Duration : 1 h 35 min
Bit rate : 25.5 kb/s
Count of elements : 1885
Stream size : 17.4 MiB (1%)
Title : ~Ranvijay~
Language : English
Default : Yes
Forced : Yes

Menu
00:00:00.000 : en:00:00:00.000
00:08:42.772 : en:00:08:42.772
00:17:55.074 : en:00:17:55.074
00:29:17.505 : en:00:29:17.505
00:38:05.032 : en:00:38:05.032
00:48:49.800 : en:00:48:49.800
00:58:49.192 : en:00:58:49.192
01:09:16.944 : en:01:09:16.944
01:18:14.564 : en:01:18:14.564
01:24:18.636 : en:01:24:18.636
01:32:30.293 : en:01:32:30.293













Don't walk as you are king, walk as you don't care who the king is....!!

[/b]






   


Related Torrents




Recent Searches

Home - Browse Torrents - Upload Torrent - Recent Torrents - Login - Register - FAQ

Can't load ExtraTorrent.Network
2006-2018 ExtraTorrent.Network