ExtraTorrent

Login   |   Register   |   Home
Loading...
Browse Torrents
| Search Cloud | | | | | FAQ  
» » Vikings S05E12 Murder Most Foul 1080p 5 1 - 2 0 x264 Phun Psyz

Download Vikings S05E12 Murder Most Foul 1080p 5 1 - 2 0 x264 Phun Psyz extratorrent


Download torrent: Download Magnet Vikings S05E12 Murder Most Foul 1080p 5 1 - 2 0 x264 Phun Psyz
Info hash 1567E6EB7CA20E1EC65CE8A52CE91ECDF611471D
Torrent ID13952494
Comments: Sort Read Comments
Category: TV
Health:
 Seeders: 18 |  Leechers: 3 |  Completed: 691
Torrent language: English English
Total Size: 793.7 MB
Uploader: PhunPsyz Trusted Uploader Site Friend Superman Sun
Torrent added: 06-12-2018, 14:25:06
Views: 25



Extratorrent Download Torrent



www.imdb.com/title/tt6391124/?ref_=ttep_ep12

Bjorn, Lagertha and Ubbe face an uncertain fate as Heahmund's loyalty is tested; Floki fights to understand the will of the gods in Iceland; Ivar may have met his match in Kattegat.

Source: METCON (Webrip)







Format : MPEG-4
Format profile : Base Media / Version 2
Codec ID : mp42 (isom/iso2/avc1/mp41)
File size : 794 MiB
Duration : 45 min 20 s
Overall bit rate mode : Variable
Overall bit rate : 2 447 kb/s

Video
ID : 1
Format : AVC
Format/Info : Advanced Video Codec
Format profile : [email protected]
Format settings : CABAC / 1 Ref Frames
Format settings, CABAC : Yes
Format settings, ReFrames : 1 frame
Codec ID : avc1
Codec ID/Info : Advanced Video Coding
Duration : 45 min 20 s
Bit rate : 1 960 kb/s
Width : 1 920 pixels
Height : 1 080 pixels
Display aspect ratio : 16:9
Frame rate mode : Variable
Frame rate : 23.976 (24000/1001) FPS
Minimum frame rate : 23.974 FPS
Maximum frame rate : 23.981 FPS
Color space : YUV
Chroma subsampling : 4:2:0
Bit depth : 8 bits
Scan type : Progressive
Bits/(Pixel*Frame) : 0.039
Stream size : 636 MiB (80%)
Writing library : x264 core 155 r2901 7d0ff22

Audio #1
ID : 2
Format : AC-3
Format/Info : Audio Coding 3
Commercial name : Dolby Digital
Codec ID : ac-3
Duration : 45 min 20 s
Bit rate mode : Constant
Bit rate : 320 kb/s
Channel(s) : 6 channels
Channel layout : L R C LFE Ls Rs
Sampling rate : 48.0 kHz
Frame rate : 31.250 FPS (1536 SPF)
Bit depth : 16 bits
Compression mode : Lossy
Stream size : 104 MiB (13%)
Title : Surround / Surround
Language : English

Audio #2
ID : 3
Format : AAC LC
Format/Info : Advanced Audio Codec Low Complexity
Codec ID : mp4a-40-2
Duration : 45 min 20 s
Bit rate mode : Variable
Bit rate : 160 kb/s
Channel(s) : 2 channels
Channel layout : L R
Sampling rate : 48.0 kHz
Frame rate : 46.875 FPS (1024 SPF)
Compression mode : Lossy
Stream size : 52.0 MiB (7%)
Title : Stereo / Stereo
Language : English

Text
Language : English
Default : Yes
Forced : No
Language : German
Default : No
Forced : No





   


Related Torrents




Recent Searches

Home - Browse Torrents - Upload Torrent - Recent Torrents - Login - Register - FAQ

Can't load ExtraTorrent.Network
2006-2018 ExtraTorrent.Network