ExtraTorrent

Login   |   Register   |   Home
Loading...
Browse Torrents
| Search Cloud | | | | | FAQ  
» » Urotsukidoji - Legend of the Overfiend (1989) 1080p BDRip x265 DTS-HD MA 2 0 Goki [SEV]

Download Urotsukidoji - Legend of the Overfiend (1989) 1080p BDRip x265 DTS-HD MA 2 0 Goki [SEV] extratorrent


Download torrent: Download Magnet Urotsukidoji - Legend of the Overfiend (1989) 1080p BDRip x265 DTS-HD MA 2 0 Goki [SEV]
Info hash 495AEF607629ABB380C1725720228F05E6F1EC22
Torrent ID13952415
Comments: Sort Read Comments
Category: Movies
Health:
 Seeders: 9 |  Leechers: 4 |  Completed: 415
Torrent language: English English
Total Size: 8.7 GB
Uploader: D0ct0rLew Trusted Uploader Site Friend Superman Sun
Torrent added: 06-12-2018, 13:05:08
Views: 23



Extratorrent Download Torrent






Screenshots


Source


Encode


Media Information



Unique ID : 247897759294188445090909957088679818547 (0xBA7F5F2CC901CEB722A9B9B5E8E3F533)
Complete name : Urotsukidoji - Legend of the Overfiend (1989) 1080p BDRip x265 DTS-HD MA 2.0 Goki [SEV].mkv
Format : Matroska
Format version : Version 4 / Version 2
File size : 8.67 GiB
Duration : 1 h 46 min
Overall bit rate : 11.7 Mb/s
Movie name : Urotsukidoji - Legend of the Overfiend (1989) 1080p BDRip x265 DTS-HD MA 2.0 Goki [SEV]
Encoded date : UTC 2018-12-05 22:39:19
Writing application : mkvmerge v28.2.0 ('The Awakening') 64-bit
Writing library : libebml v1.3.6 + libmatroska v1.4.9

Video
ID : 1
Format : HEVC
Format/Info : High Efficiency Video Coding
Format profile : Main [email protected]@Main
Codec ID : V_MPEGH/ISO/HEVC
Duration : 1 h 46 min
Bit rate : 8 509 kb/s
Width : 1 920 pixels
Height : 1 080 pixels
Display aspect ratio : 16:9
Frame rate mode : Constant
Frame rate : 23.976 (24000/1001) FPS
Original frame rate : 23.976 (23976/1000) FPS
Color space : YUV
Chroma subsampling : 4:2:0
Bit depth : 10 bits
Bits/(Pixel*Frame) : 0.171
Stream size : 6.33 GiB (73%)
Writing library : x265 2.9+8-27d8424c799d:[Windows][GCC 8.2.0][64 bit] 10bit
Encoding settings : cpuid=1049071 / frame-threads=3 / numa-pools=8 / wpp / no-pmode / no-pme / no-psnr / no-ssim / log-level=2 / input-csp=1 / input-res=1920x1080 / interlace=0 / total-frames=153364 / level-idc=0 / high-tier=1 / uhd-bd=0 / ref=4 / no-allow-non-conformance / no-repeat-headers / annexb / no-aud / no-hrd / info / hash=0 / no-temporal-layers / open-gop / min-keyint=23 / keyint=250 / gop-lookahead=0 / bframes=8 / b-adapt=2 / b-pyramid / bframe-bias=0 / rc-lookahead=100 / lookahead-slices=4 / scenecut=40 / radl=0 / no-intra-refresh / ctu=64 / min-cu-size=8 / no-rect / no-amp / max-tu-size=32 / tu-inter-depth=2 / tu-intra-depth=2 / limit-tu=4 / rdoq-level=2 / dynamic-rd=0.00 / no-ssim-rd / signhide / no-tskip / nr-intra=0 / nr-inter=0 / no-constrained-intra / no-strong-intra-smoothing / max-merge=3 / limit-refs=2 / limit-modes / me=3 / subme=5 / merange=57 / temporal-mvp / weightp / weightb / no-analyze-src-pics / deblock=0:0 / sao / no-sao-non-deblock / rd=6 / no-early-skip / rskip / no-fast-intra / no-tskip-fast / no-cu-lossless / b-intra / no-splitrd-skip / rdpenalty=0 / psy-rd=1.30 / psy-rdoq=2.00 / no-rd-refine / no-lossless / cbqpoffs=0 / crqpoffs=0 / rc=crf / crf=16.5 / qcomp=0.60 / qpstep=4 / stats-write=0 / stats-read=0 / ipratio=1.40 / pbratio=1.30 / aq-mode=2 / aq-strength=1.10 / cutree / zone-count=0 / no-strict-cbr / qg-size=32 / no-rc-grain / qpmax=69 / qpmin=0 / no-const-vbv / sar=1 / overscan=0 / videoformat=5 / range=0 / colorprim=2 / transfer=2 / colormatrix=2 / chromaloc=0 / display-window=0 / max-cll=0,0 / min-luma=0 / max-luma=1023 / log2-max-poc-lsb=8 / vui-timing-info / vui-hrd-info / slices=1 / no-opt-qp-pps / no-opt-ref-list-length-pps / no-multi-pass-opt-rps / scenecut-bias=0.05 / no-opt-cu-delta-qp / no-aq-motion / no-hdr / no-hdr-opt / no-dhdr10-opt / no-idr-recovery-sei / analysis-reuse-level=5 / scale-factor=0 / refine-intra=0 / refine-inter=0 / refine-mv=0 / no-limit-sao / ctu-info=0 / no-lowpass-dct / refine-mv-type=0 / copy-pic=1 / max-ausize-factor=1.0 / no-dynamic-refine / no-single-sei
Language : English
Default : Yes
Forced : No

Audio #1
ID : 2
Format : DTS
Format/Info : Digital Theater Systems
Format profile : MA / Core
Mode : 16
Format settings, Endianness : Big
Codec ID : A_DTS
Duration : 1 h 46 min
Bit rate mode : Variable / Constant
Bit rate : 1 536 kb/s / 1 509 kb/s
Channel(s) : 2 channels
Channel positions : / Front: L R
Sampling rate : 48.0 kHz
Frame rate : 93.750 FPS (512 SPF)
Bit depth : 16 bits
Compression mode : Lossless / Lossy
Stream size : 1.16 GiB (13%)
Title : English Stereo DTS-HD MA
Language : English
Default : Yes
Forced : No

Audio #2
ID : 3
Format : DTS
Format/Info : Digital Theater Systems
Format profile : MA / Core
Mode : 16
Format settings, Endianness : Big
Codec ID : A_DTS
Duration : 1 h 46 min
Bit rate mode : Variable / Constant
Bit rate : 1 570 kb/s / 1 509 kb/s
Channel(s) : 2 channels
Channel positions : Front: L R
Sampling rate : 48.0 kHz
Frame rate : 93.750 FPS (512 SPF)
Bit depth : 16 bits
Compression mode : Lossless / Lossy
Stream size : 1.17 GiB (13%)
Title : Japanese Stereo DTS-HD MA
Language : Japanese
Default : No
Forced : No

Text #1
ID : 4
Format : UTF-8
Codec ID : S_TEXT/UTF8
Codec ID/Info : UTF-8 Plain Text
Duration : 29 min 45 s
Bit rate : 0 b/s
Count of elements : 7
Stream size : 197 Bytes (0%)
Title : English SRT by BlazeSeven(SEV)(For Foreign Language Parts Only)
Language : English
Default : Yes
Forced : No

Text #2
ID : 5
Format : UTF-8
Codec ID : S_TEXT/UTF8
Codec ID/Info : UTF-8 Plain Text
Duration : 1 h 43 min
Bit rate : 29 b/s
Count of elements : 784
Stream size : 22.3 KiB (0%)
Title : English SRT by BlazeSeven(SEV)
Language : English
Default : No
Forced : No

Text #3
ID : 6
Format : PGS
Codec ID : S_HDMV/PGS
Codec ID/Info : Picture based subtitle format used on BDs/HD-DVDs
Duration : 29 min 45 s
Bit rate : 428 b/s
Count of elements : 14
Stream size : 93.4 KiB (0%)
Title : English PGS (For Foreign Language Parts Only)
Language : English
Default : No
Forced : No

Text #4
ID : 7
Format : PGS
Codec ID : S_HDMV/PGS
Codec ID/Info : Picture based subtitle format used on BDs/HD-DVDs
Duration : 1 h 43 min
Bit rate : 17.6 kb/s
Count of elements : 1551
Stream size : 13.0 MiB (0%)
Title : English PGS
Language : English
Default : No
Forced : No

Menu
00:00:00.000 : en:Chapter 00
00:06:59.168 : en:Chapter 01
00:17:15.034 : en:Chapter 02
00:31:40.148 : en:Chapter 03
00:45:02.408 : en:Chapter 04
00:54:59.421 : en:Chapter 05
01:08:42.034 : en:Chapter 06
01:17:24.222 : en:Chapter 07
01:28:20.712 : en:Chapter 08
01:41:59.363 : en:Chapter 09



Source Media Information



Unique ID : 313361569071998171630529915031905897601 (0xEBBF3E30A24156F0B11D74CBD8DC0C81)
Complete name : Urotsukidoji - Legend of the Overfiend (1989)[1080p.BluRay.REMUX].mkv
Format : Matroska
Format version : Version 2
File size : 19.5 GiB
Duration : 1 h 46 min
Overall bit rate mode : Variable
Overall bit rate : 26.2 Mb/s
Encoded date : UTC 2018-11-24 09:05:37
Writing application : MakeMKV v1.14.1 win(x64-release)
Writing library : libmakemkv v1.14.1 (1.3.5/1.4.7) win(x64-release)

Video
ID : 1
ID in the original source medium : 4113 (0x1011)
Format : AVC
Format/Info : Advanced Video Codec
Format profile : [email protected]
Format settings : CABAC / 4 Ref Frames
Format settings, CABAC : Yes
Format settings, RefFrames : 4 frames
Codec ID : V_MPEG4/ISO/AVC
Duration : 1 h 46 min
Bit rate mode : Variable
Bit rate : 20.0 Mb/s
Maximum bit rate : 33.0 Mb/s
Width : 1 920 pixels
Height : 1 080 pixels
Display aspect ratio : 16:9
Frame rate mode : Constant
Frame rate : 23.976 (24000/1001) FPS
Standard : NTSC
Color space : YUV
Chroma subsampling : 4:2:0
Bit depth : 8 bits
Scan type : Progressive
Bits/(Pixel*Frame) : 0.403
Stream size : 14.9 GiB (76%)
Language : English
Default : No
Forced : No
Color range : Limited
Color primaries : BT.709
Transfer characteristics : BT.709
Matrix coefficients : BT.709
Original source medium : Blu-ray

Audio #1
ID : 2
ID in the original source medium : 4352 (0x1100)
Format : DTS XLL
Format/Info : Digital Theater Systems
Commercial name : DTS-HD Master Audio
Codec ID : A_DTS
Duration : 1 h 46 min
Bit rate mode : Variable
Bit rate : 1 567 kb/s
Channel(s) : 2 channels
Sampling rate : 48.0 kHz
Frame rate : 93.750 FPS (512 SPF)
Bit depth : 16 bits
Compression mode : Lossless
Stream size : 1.16 GiB (6%)
Title : Stereo
Language : English
Default : Yes
Forced : No
Original source medium : Blu-ray

Audio #2
ID : 3
ID in the original source medium : 4352 (0x1100)
Format : DTS
Format/Info : Digital Theater Systems
Codec ID : A_DTS
Duration : 1 h 46 min
Bit rate mode : Constant
Bit rate : 1 509 kb/s
Channel(s) : 2 channels
Channel layout : Lt Rt
Sampling rate : 48.0 kHz
Frame rate : 93.750 FPS (512 SPF)
Bit depth : 16 bits
Compression mode : Lossy
Stream size : 1.12 GiB (6%)
Title : Stereo
Language : English
Default : No
Forced : No
Original source medium : Blu-ray

Audio #3
ID : 4
ID in the original source medium : 4353 (0x1101)
Format : DTS XLL
Format/Info : Digital Theater Systems
Commercial name : DTS-HD Master Audio
Codec ID : A_DTS
Duration : 1 h 46 min
Bit rate mode : Variable
Bit rate : 1 570 kb/s
Channel(s) : 2 channels
Channel layout : L R
Sampling rate : 48.0 kHz
Frame rate : 93.750 FPS (512 SPF)
Bit depth : 16 bits
Compression mode : Lossless
Stream size : 1.17 GiB (6%)
Title : Stereo
Language : Japanese
Default : No
Forced : No
Original source medium : Blu-ray

Audio #4
ID : 5
ID in the original source medium : 4353 (0x1101)
Format : DTS
Format/Info : Digital Theater Systems
Codec ID : A_DTS
Duration : 1 h 46 min
Bit rate mode : Constant
Bit rate : 1 509 kb/s
Channel(s) : 2 channels
Channel layout : L R
Sampling rate : 48.0 kHz
Frame rate : 93.750 FPS (512 SPF)
Bit depth : 16 bits
Compression mode : Lossy
Stream size : 1.12 GiB (6%)
Title : Stereo
Language : Japanese
Default : No
Forced : No
Original source medium : Blu-ray

Text #1
ID : 6
ID in the original source medium : 4608 (0x1200)
Format : PGS
Codec ID : S_HDMV/PGS
Codec ID/Info : Picture based subtitle format used on BDs/HD-DVDs
Duration : 29 min 45 s
Bit rate : 428 b/s
Count of elements : 14
Stream size : 93.4 KiB (0%)
Language : English
Default : No
Forced : No
Original source medium : Blu-ray

Text #2
ID : 8
ID in the original source medium : 4609 (0x1201)
Format : PGS
Codec ID : S_HDMV/PGS
Codec ID/Info : Picture based subtitle format used on BDs/HD-DVDs
Duration : 1 h 43 min
Bit rate : 17.6 kb/s
Count of elements : 1551
Stream size : 13.0 MiB (0%)
Language : English
Default : No
Forced : No
Original source medium : Blu-ray

Menu
00:00:00.000 : en:Chapter 00
00:06:59.168 : en:Chapter 01
00:17:15.034 : en:Chapter 02
00:31:40.148 : en:Chapter 03
00:45:02.408 : en:Chapter 04
00:54:59.421 : en:Chapter 05
01:08:42.034 : en:Chapter 06
01:17:24.222 : en:Chapter 07
01:28:20.712 : en:Chapter 08
01:41:59.363 : en:Chapter 09


We have no issue with individuals posting or re-uploading our torrents on a platform we aren't on. However, if this is something you'd like to do, please do so in a 'as-is' format. We ask that you do not create a new torrent, include all descriptions you see above including the SEV logo, tags, notes and screenshots. If you'd like to become a permanent poster on a website we don't post to, feel free to get in contact with a Sublime Encoded Video member.



We are recruiting/training new members for SEV & seedbox providers as well as people to help out with subtitles. As you already know, we deliver quality, so you know the standard. If you're interested, feel free to contact any of the team members.






   


Related Torrents




Recent Searches

Home - Browse Torrents - Upload Torrent - Recent Torrents - Login - Register - FAQ

Can't load ExtraTorrent.Network
2006-2018 ExtraTorrent.Network