Loading...
Loading...

ExtraTorrent

Login   |   Register   |   Home
loading...
Browse Torrents
| Search Cloud | | | | | FAQ  
» » [60mbAnime com] Escha & Logy no Atelier [720p] [BD] [EngSub] [10Bit] [HEVC]

Download [60mbAnime com] Escha & Logy no Atelier [720p] [BD] [EngSub] [10Bit] [HEVC] extratorrent


Download torrent: Download Magnet [60mbAnime com] Escha & Logy no Atelier [720p] [BD] [EngSub] [10Bit] [HEVC]
Info hash EA12884690CABEA346BF7F34D4F0ADB809E7E074
Torrent ID13919091
Comments: Sort Read Comments
Category: Anime
Health:
 Seeders: n/a |  Leechers: n/a |  Completed: n/a
Torrent language: Japanese Japanese
Total Size: 857.5 MB
Uploader: 60mbAnime Trusted Uploader Site Friend Superman Sun
Torrent added: 09-11-2018, 10:00:04
Views: 22



Extratorrent Download Torrent



General
Unique ID : 191605186718240363648387092900945871726 (0x9025D110A22B4E74CF2392A1C9F4436E)
Complete name : [60mbAnime.com] Escha & Logy no Atelier [720p] [BD] [EngSub] [10Bit] [HEVC]
Format : Matroska
Format version : Version 4
File size : 74.2 MiB
Duration : 23 min 36 s
Overall bit rate : 440 kb/s
Movie name : Atelier Escha & Logy - Alchemists of the Dusk Sky - 01 - Welcome to the Atelier
Encoded date : UTC 2018-05-22 08:33:16
Writing application : mkvmerge v22.0.0 ('At The End Of The World') 64-bit
Writing library : libebml v1.3.5 + libmatroska v1.4.8 / Lavf57.41.100
Attachments : akbar.TTF / AlegreyaSans-Medium.otf / atelierlogo.ttf / CantoriaMTStd-SemiBold.otf / CorpidBold.otf / FiraSansOT-Medium.otf / FiraSansOT-MediumItalic.otf / IwaGyoPro-Bd-Kami.ttf / IwaOMinPro-Bd-Fate.ttf / IwaOMinPro-Hv-Fate.ttf / QlassikBold_TB.otf / RUZICKATYPEK.TTF

Video
ID : 1
Format : HEVC
Format/Info : High Efficiency Video Coding
Format profile : Main [email protected]@Main
Codec ID : V_MPEGH/ISO/HEVC
Duration : 23 min 36 s
Bit rate : 319 kb/s
Width : 1 280 pixels
Height : 720 pixels
Display aspect ratio : 16:9
Frame rate mode : Variable
Frame rate : 23.976 FPS
Color space : YUV
Chroma subsampling : 4:2:0
Bit depth : 10 bits
Bits/(Pixel*Frame) : 0.014
Stream size : 53.8 MiB (73%)
Writing library : x265 1.9+226-6561d8676581:[Windows][GCC 5.3.0][64 bit] 10bit
Encoding settings : wpp / ctu=64 / min-cu-size=8 / max-tu-size=32 / tu-intra-depth=1 / tu-inter-depth=1 / me=3 / subme=3 / merange=57 / rect / no-amp / max-merge=3 / temporal-mvp / no-early-skip / rskip / rdpenalty=0 / no-tskip / no-tskip-fast / strong-intra-smoothing / no-lossless / no-cu-lossless / no-constrained-intra / no-fast-intra / open-gop / no-temporal-layers / interlace=0 / keyint=250 / min-keyint=23 / scenecut=40 / rc-lookahead=25 / lookahead-slices=4 / bframes=4 / bframe-bias=0 / b-adapt=2 / ref=4 / limit-refs=3 / limit-modes / weightp / no-weightb / aq-mode=1 / qg-size=32 / aq-strength=1.00 / cbqpoffs=0 / crqpoffs=0 / rd=4 / psy-rd=2.00 / rdoq-level=2 / psy-rdoq=1.00 / no-rd-refine / signhide / deblock=0:0 / sao / no-sao-non-deblock / b-pyramid / cutree / no-intra-refresh / rc=crf / crf=27.0 / qcomp=0.60 / qpmin=0 / qpmax=51 / qpstep=4 / ipratio=1.40 / pbratio=1.30
Language : Japanese
Default : Yes
Forced : No

Audio
ID : 2
Format : Opus
Codec ID : A_OPUS
Duration : 23 min 36 s
Bit rate : 102 kb/s
Channel(s) : 2 channels
Channel layout : L R
Sampling rate : 48.0 kHz
Frame rate : 50.000 FPS (960 SPF)
Compression mode : Lossy
Stream size : 17.3 MiB (23%)
Writing library : Lavc57.48.101 libopus
Language : Japanese
Default : Yes
Forced : No

Text
ID : 3
Format : ASS
Codec ID : S_TEXT/ASS
Codec ID/Info : Advanced Sub Station Alpha
Duration : 23 min 23 s
Bit rate : 417 b/s
Count of elements : 670
Compression mode : Lossless
Stream size : 71.6 KiB (0%)
Title : Stylized Full Subtitles
Language : English
Default : Yes
Forced : No





   


Related Torrents




Recent Searches

Home - Browse Torrents - Upload Torrent - Recent Torrents - Login - Register - FAQ

Can't load ExtraTorrent.Network
2006-2018 ExtraTorrent.Network