ExtraTorrent

Login   |   Register   |   Home
Browse Torrents
| Search Cloud | | | | | FAQ  
» » Laila Majnu 2018 Hindi 720p HDRip x264 AAC { TaRa } mkv

Download Laila Majnu 2018 Hindi 720p HDRip x264 AAC { TaRa } mkv extratorrent


Download torrent: Download Magnet Laila Majnu 2018 Hindi 720p HDRip x264 AAC { TaRa } mkv
Info hash E2053A49BBD829D695B79B9B8FFAB3FAC54DE01D
Torrent ID13918818
Comments: Sort Read Comments
Category: Movies
Health:
 Seeders: 1 |  Leechers: 3 |  Completed: 624
Torrent language: Hindi Hindi
Total Size: 1.3 GB
Uploader: SkTara Trusted Uploader Site Friend Superman Sun
Torrent added: 09-11-2018, 04:30:07
Views: 75



Extratorrent Download Torrent




Laila Majnu 2018 Hindi 720p HDRip x264 AAC { TaRa }.mkv


===================================================================
General
Complete name : Laila Majnu 2018 Hindi 720p HDRip x264 AAC { TaRa }.mkv
Format : Matroska
Format version : Version 4
File size : 1.29 GiB
Duration : 2 h 12 min
Overall bit rate : 1 393 kb/s
===================================================================
Video
ID : 1
Format : AVC
Format/Info : Advanced Video Codec
Format profile : [email protected]
Format settings : CABAC / 4 Ref Frames
Format settings, CABAC : Yes
Format settings, ReFrames : 4 frames
Codec ID : V_MPEG4/ISO/AVC
Duration : 2 h 12 min
Bit rate : 1 266 kb/s
Width : 1 280 pixels
Height : 544 pixels
Display aspect ratio : 2.35:1
Frame rate mode : Constant
Frame rate : 25.000 FPS
Color space : YUV
Chroma subsampling : 4:2:0
Bit depth : 8 bits
Scan type : Progressive
Bits/(Pixel*Frame) : 0.073
Stream size : 1.17 GiB (91%)
Title : .....::::: TaRa :::::.....
Language : Hindi
Default : Yes
Forced : No
===================================================================
Audi=
ID : 2
Format : AAC LC
Format/Info : Advanced Audio Codec Low Complexity
Codec ID : A_AAC-2
Duration : 2 h 12 min
Bit rate : 125 kb/s
Channel(s) : 2 channels
Channel layout : L R
Sampling rate : 48.0 kHz
Frame rate : 46.875 FPS (1024 SPF)
Compression mode : Lossy
Delay relative to video : -21 ms
Stream size : 118 MiB (9%)
Title : .....::::: TaRa :::::.....
Language : Hindi
Default : Yes
Forced : No
===================================================================











































   


Related Torrents
Browse Movies Torrents Related Torrents added recently in our database RSS  
Added  Size  Sort S  Sort L  Sort Health
Download Magnet English  Evil_Lives_Here_S03E12_HDTV_x264-W4F in TV, by Trige 7 minutes 147.9 MB 91566 18533
Download Magnet English  Drunk_History_S06E01_720p_HDTV_x264-W4F in TV, by Trige 7 minutes 407.1 MB 32996 89305
Download Magnet English  Corporate_S02E01_HDTV_x264-W4F[TGx] in TV, by mazemaze16 7 minutes 99.8 MB 22117 51935
Download Magnet English  Corporate_S02E01_720p_HDTV_x264-W4F[TGx] in TV, by mazemaze16 7 minutes 345.3 MB 42543 98161
Download Magnet English  Welcome_to_Murdertown_S01E01_720p_HDTV_x264-W4F in TV, by Trige 7 minutes 1,003.9 MB 2017 32414
Download Magnet English  Michael_McIntyres_Big_Show_S04E00_Big_Surprises_WEB_h264-KOM___ in TV, by EZTVag 12 minutes 1.3 GB 64300 2532
Download Magnet English  American_Experience_S31E01_The_Swamp_HDTV_x264-W4F_[eztv] in TV, by EZTVag 12 minutes 950.9 MB 57494 29228
Download Magnet Italian  Mia_E_Il_Leone_Bianco_2018_iTALiAN_MD_720p_HDCAM_x264-iSTANC___ in Movies, by abnadem 12 minutes 2.2 GB 40542 21017
Download Magnet English  The_Voice_UK_S08E03_XviD-AFG[TGx] in TV, by mazemaze16 12 minutes 1.9 GB 74469 32166
Download Magnet English  Ben_10_2016_S02E32_720p_HDTV_x264-W4F in TV, by Trige 12 minutes 297.0 MB 20010 80547




Recent Searches

Home - Browse Torrents - Upload Torrent - Recent Torrents - Login - Register - FAQ

Can't load ExtraTorrent.Network
2006-2018 ExtraTorrent.Network