ExtraTorrent

Login   |   Register   |   Home
Browse Torrents
| Search Cloud | | | | | FAQ  
» » Ice Age Collision Course (2016) x 1600 (2160p) HDR 5 1 x265 10bit Phun Psyz

Download Ice Age Collision Course (2016) x 1600 (2160p) HDR 5 1 x265 10bit Phun Psyz extratorrent


Download torrent: Download Magnet Ice Age Collision Course (2016) x 1600 (2160p) HDR 5 1 x265 10bit Phun Psyz
Info hash 83FB75B0FE40132A10E80D1B1A1601A40213B7F2
Torrent ID13918785
Comments: Sort Read Comments
Category: Movies
Health:
 Seeders: 3 |  Leechers: n/a |  Completed: 242
Torrent language: English English
Total Size: 2.9 GB
Uploader: PhunPsyz Trusted Uploader Site Friend Superman Sun
Torrent added: 09-11-2018, 03:25:06
Views: 82



Extratorrent Download Torrent



www.imdb.com/title/tt3416828/

Manny, Diego, and Sid join up with Buck to fend off a meteor strike that would destroy the world.

Source: FGT 4K Remux







Format : Matroska
Format version : Version 4 / Version 2
File size : 2.93 GiB
Duration : 1 h 34 min
Overall bit rate : 4 442 kb/s

Video
ID : 1
Format : HEVC
Format/Info : High Efficiency Video Coding
Format profile : Main [email protected]@High
Codec ID : V_MPEGH/ISO/HEVC
Duration : 1 h 34 min
Bit rate : 4 034 kb/s
Width : 3 840 pixels
Height : 1 600 pixels
Display aspect ratio : 2.40:1
Frame rate mode : Constant
Frame rate : 23.976 (24000/1001) FPS
Color space : YUV
Chroma subsampling : 4:2:0
Bit depth : 10 bits
Bits/(Pixel*Frame) : 0.027
Stream size : 2.66 GiB (91%)
Writing library : x265 2.6:[Windows][GCC 7.1.0][64 bit] 10bit

Audio
ID : 2
Format : AC-3
Format/Info : Audio Coding 3
Commercial name : Dolby Digital
Codec ID : A_AC3
Duration : 1 h 34 min
Bit rate mode : Constant
Bit rate : 320 kb/s
Channel(s) : 6 channels
Channel layout : L R C LFE Ls Rs
Sampling rate : 48.0 kHz
Frame rate : 31.250 FPS (1536 SPF)
Bit depth : 16 bits
Compression mode : Lossy
Stream size : 216 MiB (7%)
Title : Surround
Language : English

Text
Language : English
Language : Japanese
Language : Japanese
Language : Spanish
Language : French
Language : French
Language : Spanish
Language : Danish
Language : Dutch
Language : Finnish
Language : German
Language : Italian
Language : Norwegian
Language : Swedish
Language : Chinese
Language : Chinese
Default : No
Forced : No





   


Related Torrents




Recent Searches

Home - Browse Torrents - Upload Torrent - Recent Torrents - Login - Register - FAQ

Can't load ExtraTorrent.Network
2006-2018 ExtraTorrent.Network