Loading...
Loading...

ExtraTorrent

Login   |   Register   |   Home
loading...
Browse Torrents
| Search Cloud | | | | | FAQ  
» » Ice Age Collision Course (2016) x 1600 (2160p) HDR 5 1 x265 10bit Phun Psyz

Download Ice Age Collision Course (2016) x 1600 (2160p) HDR 5 1 x265 10bit Phun Psyz extratorrent


Download torrent: Download Magnet Ice Age Collision Course (2016) x 1600 (2160p) HDR 5 1 x265 10bit Phun Psyz
Info hash 83FB75B0FE40132A10E80D1B1A1601A40213B7F2
Torrent ID13918785
Comments: Sort Read Comments
Category: Movies
Health:
 Seeders: 5 |  Leechers: 1 |  Completed: 115
Torrent language: English English
Total Size: 2.9 GB
Uploader: PhunPsyz Trusted Uploader Site Friend Superman Sun
Torrent added: 09-11-2018, 03:25:06
Views: 25



Extratorrent Download Torrent Ice Age Collision Course (2016) x 1600 (2160p) …
prostylex.com/torrents-details.php?id=57714&hit=1
Age-ed2k_Age-迅雷种子_Age-bt种子_Age-种 …
https://bt.ke/cili/Age-/time-1.html
Ice Age: Collision Course Torrents - TorrentFunk
https://www.torrentfunk.com/?q=Ice+Age:+Collision+Course
The Purge Election Year (2016) x 1600 (2160p) …
https://torrentz2.eu/7c399a5ba406651630aa75b7ac95411e887fbda8
TORRENT Download | TorrentKen
https://torrentken.com/tk24490926/pro-evolution-soccer-2016-reloaded
ExtraTorrent The Biggest BitTorrent Platform …
www.extratorrent.network/main
KAT - Kickass Torrents Download Torrents From …
www.kickasstorrent7.top/full
Download Ice Age Collision Course 2016 1080p Bluray x264 ...
https://www.torrent-forest.top/ice-age-collision-course-2016-1080p...



www.imdb.com/title/tt3416828/

Manny, Diego, and Sid join up with Buck to fend off a meteor strike that would destroy the world.

Source: FGT 4K Remux







Format : Matroska
Format version : Version 4 / Version 2
File size : 2.93 GiB
Duration : 1 h 34 min
Overall bit rate : 4 442 kb/s

Video
ID : 1
Format : HEVC
Format/Info : High Efficiency Video Coding
Format profile : Main [email protected]@High
Codec ID : V_MPEGH/ISO/HEVC
Duration : 1 h 34 min
Bit rate : 4 034 kb/s
Width : 3 840 pixels
Height : 1 600 pixels
Display aspect ratio : 2.40:1
Frame rate mode : Constant
Frame rate : 23.976 (24000/1001) FPS
Color space : YUV
Chroma subsampling : 4:2:0
Bit depth : 10 bits
Bits/(Pixel*Frame) : 0.027
Stream size : 2.66 GiB (91%)
Writing library : x265 2.6:[Windows][GCC 7.1.0][64 bit] 10bit

Audio
ID : 2
Format : AC-3
Format/Info : Audio Coding 3
Commercial name : Dolby Digital
Codec ID : A_AC3
Duration : 1 h 34 min
Bit rate mode : Constant
Bit rate : 320 kb/s
Channel(s) : 6 channels
Channel layout : L R C LFE Ls Rs
Sampling rate : 48.0 kHz
Frame rate : 31.250 FPS (1536 SPF)
Bit depth : 16 bits
Compression mode : Lossy
Stream size : 216 MiB (7%)
Title : Surround
Language : English

Text
Language : English
Language : Japanese
Language : Japanese
Language : Spanish
Language : French
Language : French
Language : Spanish
Language : Danish
Language : Dutch
Language : Finnish
Language : German
Language : Italian
Language : Norwegian
Language : Swedish
Language : Chinese
Language : Chinese
Default : No
Forced : No





   


Related Torrents
Browse Movies Torrents Related Torrents added recently in our database RSS  
Added  Size  Sort S  Sort L  Sort Health
Download Magnet English  The_Romanoffs_S01E07_1080p_WEB_h264-SKGTV[TGx] in TV, by mazemaze16 4 minutes 3.9 GB 39902 25679
Download Magnet English  The_Romanoffs_S01E07_XviD-AFG[TGx] in TV, by mazemaze16 4 minutes 628.7 MB 79631 84913
Download Magnet English  EastEnders_2018_11_15_720p_WEB_h264-KOMPOST_[eztv] in TV, by EZTVag 4 minutes 2.1 GB 65892 88989
Download Magnet English  Emmerdale_2018_11_15_WEB_x264-KOMPOST_[eztv] in TV, by EZTVag 4 minutes 490.8 MB 69959 28394
Download Magnet English  The_Romanoffs_S01E07_WEB_h264-SKGTV[TGx] in TV, by mazemaze16 9 minutes 458.2 MB 30830 37329
Download Magnet English  The_Romanoffs_S01E07_WEB_h264-SKGTV_[eztv] in TV, by EZTVag 9 minutes 456.6 MB 41861 50311
Download Magnet English  MasterChef_The_Professionals_S11E06_720p_HDTV_x264-QPEL_[ezt___ in TV, by EZTVag 14 minutes 880.0 MB 94634 72691
Download Magnet English  The_Rachel_Maddow_Show_2018_11_14_720p_MNBC_WEB-DL_AAC2_0_x2___ in TV, by EZTVag 14 minutes 846.1 MB 48634 92409
Download Magnet English  The_Romanoffs_S01E07_720p_WEB_h264-SKGTV_[eztv] in TV, by EZTVag 14 minutes 1.4 GB 98876 28093
Download Magnet English  The_Romanoffs_S01E07_720p_WEB_h264-SKGTV[TGx] in TV, by mazemaze16 14 minutes 1.4 GB 6655 32578




Recent Searches

Home - Browse Torrents - Upload Torrent - Recent Torrents - Login - Register - FAQ

Can't load ExtraTorrent.Network
2006-2018 ExtraTorrent.Network