Loading...
Loading...

ExtraTorrent

Login   |   Register   |   Home
loading...
Browse Torrents
| Search Cloud | | | | | FAQ  
» » Laila Majnu (2018) Hindi 720p WEB-DL DD5 1 H264 AC3 1 3GB ESub -HD

Download Laila Majnu (2018) Hindi 720p WEB-DL DD5 1 H264 AC3 1 3GB ESub -HD extratorrent


Download torrent: Download Magnet Laila Majnu (2018) Hindi 720p WEB-DL DD5 1 H264 AC3 1 3GB ESub -HD
Info hash 3A7215FD94E501792A303070B2B77E6D916A2948
Torrent ID13918784
Comments: Sort Read Comments
Category: Movies
Health:
 Seeders: 2 |  Leechers: n/a |  Completed: 16
Torrent language: Hindi Hindi
Total Size: 1.3 GB
Uploader: 1337xHD Trusted Uploader Site Friend Superman Sun
Torrent added: 09-11-2018, 03:25:06
Views: 61



Extratorrent Download Torrent



https://hdfilmboss.mobi/
https://1337xhd.com/



Official Website https://hdfilmboss.mobi/
Official Website https://1337xhd.com/



General
Complete name : P:\1337xHD.Com-Laila Majnu (2018) indi 720p WEB-DL DD5.1 H264 AC3 1.2GB ESub.mp4
Format : MPEG-4
Format profile : Base Media
Codec ID : isom (isom/iso2/avc1/mp41)
File size : 1.29 GiB
Duration : 2 h 12 min
Overall bit rate : 1 393 kb/s
Movie name : WWW.HDFilmBoss.Mobi
Writing application : Lavf58.12.100

Video
ID : 1
Format : AVC
Format/Info : Advanced Video Codec
Format profile : [email protected]
Format settings : CABAC / 4 Ref Frames
Format settings, CABAC : Yes
Format settings, RefFrames : 4 frames
Codec ID : avc1
Codec ID/Info : Advanced Video Coding
Duration : 2 h 12 min
Bit rate : 1 260 kb/s
Width : 1 274 pixels
Height : 720 pixels
Display aspect ratio : 16:9
Frame rate mode : Constant
Frame rate : 25.000 FPS
Color space : YUV
Chroma subsampling : 4:2:0
Bit depth : 8 bits
Scan type : Progressive
Bits/(Pixel*Frame) : 0.055
Stream size : 1.16 GiB (90%)
Title : WWW.1337xHD.Com
Writing library : x264 core 148 r2643 5c65704
Codec configuration box : avcC

Audio
ID : 2
Format : AAC LC
Format/Info : Advanced Audio Codec Low Complexity
Codec ID : mp4a-40-2
Duration : 2 h 12 min
Bit rate mode : Constant
Bit rate : 128 kb/s
Channel(s) : 1 channel
Channel layout : C
Sampling rate : 44.1 kHz
Frame rate : 43.066 FPS (1024 SPF)
Compression mode : Lossy
Stream size : 121 MiB (9%)
Title : WWW.1337xHD.Com
Default : Yes
Alternate group : 1















   


Related Torrents




Recent Searches

Home - Browse Torrents - Upload Torrent - Recent Torrents - Login - Register - FAQ

Can't load ExtraTorrent.Network
2006-2018 ExtraTorrent.Network