Loading...
Loading...

ExtraTorrent

Login   |   Register   |   Home
loading...
Browse Torrents
| Search Cloud | | | | | FAQ  
» » This Is Our Christmas 2018 Movies HDRip x264 5 1 with Sample ☻rDX☻

Download This Is Our Christmas 2018 Movies HDRip x264 5 1 with Sample ☻rDX☻ extratorrent


Download torrent: Download Magnet This Is Our Christmas 2018 Movies HDRip x264 5 1 with Sample ☻rDX☻
Info hash 2648E3E6E9D5E34D78E3DAC74D40081BFD6EF47A
Torrent ID13918769
Comments: Sort Read Comments
Category: Movies
Health:
 Seeders: 6 |  Leechers: 2 |  Completed: 66
Torrent language: English English
Total Size: 766.8 MB
Uploader: nehalpuja Trusted Uploader Site Friend Superman Sun
Torrent added: 09-11-2018, 03:05:05
Views: 21



Extratorrent Download Torrent KickassTorrents Site Status, Kickass Proxy List
https://thekickasstorrents.com



This Is Our Christmas 2018 Movies HDRip x264 5.1 with Sample ☻rDX☻
===============================================================================================

SCREEN SHOTS:



or

https://iphonehosting.eu/2018/11/a/namecheap/1.html

File size : 759 MiB
Duration : 1 h 19 min
Overall bit rate mode : Constant
Overall bit rate : 1 330 kb/s
Movie name : This Is Our Christmas 2018 Movies HDRip x264 5.1 ☻rDX☻

Video
ID : 2
Format : AVC
Format/Info : Advanced Video Codec
Format profile : [email protected]
Format settings, CABAC : Yes
Format settings, ReFrames : 2 frames
Format settings, GOP : M=1, N=12
Codec ID : V_MPEG4/ISO/AVC
Duration : 1 h 19 min
Bit rate mode : Constant
Bit rate : 1 139 kb/s
Width : 720 pixels
Height : 400 pixels
Display aspect ratio : 16:9
Frame rate mode : Constant
Frame rate : 23.976 FPS
Color space : YUV
Chroma subsampling : 4:2:0
Bit depth : 8 bits
Scan type : Progressive
Bits/(Pixel*Frame) : 0.165
Stream size : 634 MiB (84%)
Title : ☻rDX☻
Default : Yes
Forced : No

Audio
ID : 1
Format : AC-3
Format/Info : Audio Coding 3
Mode extension : CM (complete main)
Format settings, Endianness : Big
Codec ID : A_AC3
Duration : 1 h 19 min
Bit rate mode : Constant
Bit rate : 192 kb/s
Channel(s) : 6 channels
Channel positions : Front: L C R, Side: L R, LFE
Sampling rate : 44.1 kHz
Frame rate : 28.711 FPS (1536 spf)
Bit depth : 16 bits
Compression mode : Lossy
Stream size : 110 MiB (14%)
Title : ☻rDX☻
Default : Yes
Forced : No

https://www.imdb.com/title/tt6014166





   


Related Torrents
Browse Movies Torrents Related Torrents added recently in our database RSS  
Added  Size  Sort S  Sort L  Sort Health
Download Magnet English  The_Romanoffs_S01E07_1080p_WEB_h264-SKGTV[TGx] in TV, by mazemaze16 10 seconds 3.9 GB 51814 20274
Download Magnet English  The_Romanoffs_S01E07_XviD-AFG[TGx] in TV, by mazemaze16 10 seconds 628.7 MB 42827 28246
Download Magnet English  EastEnders_2018_11_15_720p_WEB_h264-KOMPOST_[eztv] in TV, by EZTVag 10 seconds 2.1 GB 76138 5856
Download Magnet English  Emmerdale_2018_11_15_WEB_x264-KOMPOST_[eztv] in TV, by EZTVag 10 seconds 490.8 MB 91331 99522
Download Magnet English  The_Romanoffs_S01E07_WEB_h264-SKGTV[TGx] in TV, by mazemaze16 5 minutes 458.2 MB 11006 56864
Download Magnet English  The_Romanoffs_S01E07_WEB_h264-SKGTV_[eztv] in TV, by EZTVag 5 minutes 456.6 MB 40050 28962
Download Magnet English  MasterChef_The_Professionals_S11E06_720p_HDTV_x264-QPEL_[ezt___ in TV, by EZTVag 10 minutes 880.0 MB 57864 70088
Download Magnet English  The_Rachel_Maddow_Show_2018_11_14_720p_MNBC_WEB-DL_AAC2_0_x2___ in TV, by EZTVag 10 minutes 846.1 MB 82956 43489
Download Magnet English  The_Romanoffs_S01E07_720p_WEB_h264-SKGTV_[eztv] in TV, by EZTVag 10 minutes 1.4 GB 56986 35243
Download Magnet English  The_Romanoffs_S01E07_720p_WEB_h264-SKGTV[TGx] in TV, by mazemaze16 10 minutes 1.4 GB 97626 36986




Recent Searches

Home - Browse Torrents - Upload Torrent - Recent Torrents - Login - Register - FAQ

Can't load ExtraTorrent.Network
2006-2018 ExtraTorrent.Network