ExtraTorrent

Login   |   Register   |   Home
Browse Torrents
| Search Cloud | | | | | FAQ  
» » This Is Our Christmas 2018 Movies HDRip x264 5 1 with Sample ☻rDX☻

Download This Is Our Christmas 2018 Movies HDRip x264 5 1 with Sample ☻rDX☻ extratorrent


Download torrent: Download Magnet This Is Our Christmas 2018 Movies HDRip x264 5 1 with Sample ☻rDX☻
Info hash 2648E3E6E9D5E34D78E3DAC74D40081BFD6EF47A
Torrent ID13918769
Comments: Sort Read Comments
Category: Movies
Health:
 Seeders: 3 |  Leechers: 1 |  Completed: 143
Torrent language: English English
Total Size: 766.8 MB
Uploader: nehalpuja Trusted Uploader Site Friend Superman Sun
Torrent added: 09-11-2018, 03:05:05
Views: 54



Extratorrent Download Torrent KickassTorrents Site Status, Kickass Proxy List
https://thekickasstorrents.com



This Is Our Christmas 2018 Movies HDRip x264 5.1 with Sample ☻rDX☻
===============================================================================================

SCREEN SHOTS:



or

https://iphonehosting.eu/2018/11/a/namecheap/1.html

File size : 759 MiB
Duration : 1 h 19 min
Overall bit rate mode : Constant
Overall bit rate : 1 330 kb/s
Movie name : This Is Our Christmas 2018 Movies HDRip x264 5.1 ☻rDX☻

Video
ID : 2
Format : AVC
Format/Info : Advanced Video Codec
Format profile : [email protected]
Format settings, CABAC : Yes
Format settings, ReFrames : 2 frames
Format settings, GOP : M=1, N=12
Codec ID : V_MPEG4/ISO/AVC
Duration : 1 h 19 min
Bit rate mode : Constant
Bit rate : 1 139 kb/s
Width : 720 pixels
Height : 400 pixels
Display aspect ratio : 16:9
Frame rate mode : Constant
Frame rate : 23.976 FPS
Color space : YUV
Chroma subsampling : 4:2:0
Bit depth : 8 bits
Scan type : Progressive
Bits/(Pixel*Frame) : 0.165
Stream size : 634 MiB (84%)
Title : ☻rDX☻
Default : Yes
Forced : No

Audio
ID : 1
Format : AC-3
Format/Info : Audio Coding 3
Mode extension : CM (complete main)
Format settings, Endianness : Big
Codec ID : A_AC3
Duration : 1 h 19 min
Bit rate mode : Constant
Bit rate : 192 kb/s
Channel(s) : 6 channels
Channel positions : Front: L C R, Side: L R, LFE
Sampling rate : 44.1 kHz
Frame rate : 28.711 FPS (1536 spf)
Bit depth : 16 bits
Compression mode : Lossy
Stream size : 110 MiB (14%)
Title : ☻rDX☻
Default : Yes
Forced : No

https://www.imdb.com/title/tt6014166





   


Related Torrents




Recent Searches

Home - Browse Torrents - Upload Torrent - Recent Torrents - Login - Register - FAQ

Can't load ExtraTorrent.Network
2006-2018 ExtraTorrent.Network