Loading...
Loading...

ExtraTorrent

Login   |   Register   |   Home
loading...
Browse Torrents
| Search Cloud | | | | | FAQ  
» » Thugs Of Hindostan 2018 Hindi Movies PDVDRip x264 Clean Audio AAC New Source with Sample ☻rDX☻

Download Thugs Of Hindostan 2018 Hindi Movies PDVDRip x264 Clean Audio AAC New Source with Sample ☻rDX☻ extratorrent


Download torrent: Download Magnet Thugs Of Hindostan 2018 Hindi Movies PDVDRip x264 Clean Audio AAC New Source with Sample ☻rDX☻
Info hash 2AB274DF5E994719241547829D559E0A73B36236
Torrent ID13918750
Comments: Sort Read Comments
Category: Movies
Health:
 Seeders: 159 |  Leechers: 43 |  Completed: 2577
Torrent language: English English
Total Size: 724.8 MB
Uploader: nehalpuja Trusted Uploader Site Friend Superman Sun
Torrent added: 09-11-2018, 02:45:13
Views: 49



Extratorrent Download Torrent



Thugs Of Hindostan 2018 Hindi Movies PDVDRip x264 Clean Audio AAC New Source with Sample ☻rDX☻
===============================================================================================

SCREEN SHOTS:



or

https://iphonehosting.eu/2018/11/a/offline/1.html

File size : 717 MiB
Duration : 2 h 34 min
Overall bit rate : 647 kb/s
Movie name : Thugs Of Hindostan 2018 Hindi Movies PDVDRip x264 Clean Audio AAC New Source ☻rDX☻

Video
ID : 2
Format : AVC
Format/Info : Advanced Video Codec
Format profile : [email protected]
Format settings, CABAC : Yes
Format settings, ReFrames : 4 frames
Codec ID : V_MPEG4/ISO/AVC
Duration : 2 h 34 min
Bit rate : 548 kb/s
Width : 720 pixels
Height : 288 pixels
Display aspect ratio : 2.500
Frame rate mode : Constant
Frame rate : 25.000 FPS
Color space : YUV
Chroma subsampling : 4:2:0
Bit depth : 8 bits
Scan type : Progressive
Bits/(Pixel*Frame) : 0.106
Stream size : 596 MiB (83%)
Title : ☻rDX☻
Writing library : x264

Audio
ID : 1
Format : MPEG Audio
Format version : Version 2
Format profile : Layer 3
Mode : Joint stereo
Mode extension : MS Stereo
Codec ID : A_MPEG/L3
Codec ID/Hint : MP3
Duration : 2 h 34 min
Bit rate mode : Constant
Bit rate : 96.0 kb/s
Channel(s) : 2 channels
Sampling rate : 22.05 kHz
Compression mode : Lossy
Stream size : 106 MiB (15%)
Title : ☻rDX☻
Writing library : LAME3.99.5
Language : English
Default : Yes
Forced : No

https://www.imdb.com/title/tt5970844





   


Related Torrents




Recent Searches

Home - Browse Torrents - Upload Torrent - Recent Torrents - Login - Register - FAQ

Can't load ExtraTorrent.Network
2006-2018 ExtraTorrent.Network