ExtraTorrent

Login   |   Register   |   Home
Loading...
Browse Torrents
| Search Cloud | | | | | FAQ  
» » Laila Majnu (2018) Hindi Proper True HQ HDRip - x264 - 700MB - 1CD - MP3 - [MovCr]

Download Laila Majnu (2018) Hindi Proper True HQ HDRip - x264 - 700MB - 1CD - MP3 - [MovCr] extratorrent


Download torrent: Download Magnet Laila Majnu (2018) Hindi Proper True HQ HDRip - x264 - 700MB - 1CD - MP3 - [MovCr]
Info hash 3EFB3948C99C321C14ADE853DC9F636DC8D3F0F6
Torrent ID13918637
Comments: Sort Read Comments
Category: Movies
Health:
 Seeders: 3 |  Leechers: n/a |  Completed: 295
Torrent language: Hindi Hindi
Total Size: 697.4 MB
Uploader: ictv Trusted Uploader Site Friend Superman Sun
Torrent added: 09-11-2018, 00:50:05
Views: 46



Extratorrent Download Torrent



www.movcr.cc



Laila Majnu (2018) Hindi Proper True HQ HDRip - x264 - 700MB - 1CD - MP3 - [MovCr]



https://www.imdb.com/title/tt8011276/



General
Unique ID : 302229298048529100913922827911580660352 (0xE35F3EDA4935DF9547B88D1145B8B280)
Complete name : www.MovCr.cc - Laila Majnu (2018) Hindi Proper True HQ HDRip - x264 - 700MB - 1CD - MP3 - [MovCr].mkv
Format : Matroska
Format version : Version 4 / Version 2
File size : 697 MiB
Duration : 2 h 12 min
Overall bit rate : 738 kb/s
Movie name : www.MovCr.cc
Encoded date : UTC 2018-11-09 00:40:34
Writing application : mkvmerge v26.0.0 ('In The Game') 64-bit
Writing library : libebml v1.3.6 + libmatroska v1.4.9

Video
ID : 1
Format : AVC
Format/Info : Advanced Video Codec
Format profile : [email protected]
Format settings : CABAC / 4 Ref Frames
Format settings, CABAC : Yes
Format settings, RefFrames : 4 frames
Codec ID : V_MPEG4/ISO/AVC
Duration : 2 h 12 min
Bit rate : 643 kb/s
Width : 720 pixels
Height : 306 pixels
Display aspect ratio : 2.35:1
Frame rate mode : Constant
Frame rate : 25.000 FPS
Color space : YUV
Chroma subsampling : 4:2:0
Bit depth : 8 bits
Scan type : Progressive
Bits/(Pixel*Frame) : 0.117
Stream size : 605 MiB (87%)
Title : www.MovCr.cc
Writing library : x264 core 155 r2901 7d0ff22
Encoding settings : cabac=1 / ref=2 / deblock=1:0:0 / analyse=0x3:0x113 / me=hex / subme=6 / psy=1 / psy_rd=1.00:0.00 / mixed_ref=1 / me_range=16 / chroma_me=1 / trellis=1 / 8x8dct=1 / cqm=0 / deadzone=21,11 / fast_pskip=1 / chroma_qp_offset=-2 / threads=10 / lookahead_threads=1 / sliced_threads=0 / nr=0 / decimate=1 / interlaced=0 / bluray_compat=0 / constrained_intra=0 / bframes=3 / b_pyramid=2 / b_adapt=1 / b_bias=0 / direct=1 / weightb=1 / open_gop=0 / weightp=1 / keyint=250 / keyint_min=25 / scenecut=40 / intra_refresh=0 / rc_lookahead=30 / rc=abr / mbtree=1 / bitrate=643 / ratetol=1.0 / qcomp=0.60 / qpmin=0 / qpmax=69 / qpstep=4 / vbv_maxrate=12500 / vbv_bufsize=12500 / nal_hrd=none / filler=0 / ip_ratio=1.40 / aq=1:1.00
Language : Hindi
Default : Yes
Forced : No
Color range : Limited
Color primaries : BT.709
Transfer characteristics : BT.709
Matrix coefficients : BT.709

Audio
ID : 2
Format : MPEG Audio
Format version : Version 1
Format profile : Layer 3
Format settings : Joint stereo / MS Stereo
Codec ID : A_MPEG/L3
Codec ID/Hint : MP3
Duration : 2 h 12 min
Bit rate mode : Constant
Bit rate : 96.0 kb/s
Channel(s) : 2 channels
Sampling rate : 44.1 kHz
Frame rate : 38.281 FPS (1152 SPF)
Compression mode : Lossy
Stream size : 90.7 MiB (13%)
Title : www.MovCr.cc
Writing library : LAME3.100
Language : Hindi
Default : Yes
Forced : No














   


Related Torrents




Recent Searches

Home - Browse Torrents - Upload Torrent - Recent Torrents - Login - Register - FAQ

Can't load ExtraTorrent.Network
2006-2018 ExtraTorrent.Network