Loading...
Loading...

ExtraTorrent

Login   |   Register   |   Home
loading...
Browse Torrents
| Search Cloud | | | | | FAQ  
» » laila-majnu-1080p-untouched-web-dl-team-techbangla mp4

Download laila-majnu-1080p-untouched-web-dl-team-techbangla mp4 extratorrent


Download torrent: Download Magnet laila-majnu-1080p-untouched-web-dl-team-techbangla mp4
Info hash 83E463FAFC0B9FE51AFD3416A9DE2C6650686E39
Torrent ID13918423
Comments: Sort Read Comments
Category: Movies
Health:
 Seeders: 3 |  Leechers: n/a |  Completed: 41
Torrent language: Hindi Hindi
Total Size: 2.8 GB
Uploader: HEVCmovies Trusted Uploader Site Friend Superman Sun
Torrent added: 08-11-2018, 19:50:05
Views: 38



Extratorrent Download Torrent

Format                                   : MPEG-4 Format profile                           : Base Media Codec ID                                 : isom (isom/iso2/avc1/mp41) File size                                : 2.83 GiB Duration                                 : 2 h 12 min Overall bit rate                         : 3 067 kb/s Writing application                      : Lavf58.22.100 Video ID                                       : 1 Format                                   : AVC Format/Info                              : Advanced Video Codec Format profile                           : [email protected] Format settings                          : CABAC / 4 Ref Frames Format settings, CABAC                   : Yes Format settings, RefFrames               : 4 frames Codec ID                                 : avc1 Codec ID/Info                            : Advanced Video Coding Duration                                 : 2 h 12 min Bit rate                                 : 3 000 kb/s Width                                    : 1 920 pixels Height                                   : 1 080 pixels Display aspect ratio                     : 16:9 Frame rate mode                          : Constant Frame rate                               : 25.000 FPS Color space                              : YUV Chroma subsampling                       : 4:2:0 Bit depth                                : 8 bits Scan type                                : Progressive Bits/(Pixel*Frame)                       : 0.058 Stream size                              : 2.74 GiB (97%) Writing library                          : x264 core 152 r2854 e9a5903 Encoding settings                        : cabac=1 / ref=3 / deblock=1:0:0 / analyse=0x3:0x113 / me=hex / subme=7 / psy=1 / psy_rd=1.00:0.00 / mixed_ref=1 / me_range=16 / chroma_me=1 / trellis=1 / 8x8dct=1 / cqm=0 / deadzone=21,11 / fast_pskip=1 / chroma_qp_offset=-2 / threads=34 / lookahead_threads=5 / sliced_threads=0 / nr=0 / decimate=1 / interlaced=0 / bluray_compat=0 / constrained_intra=0 / bframes=3 / b_pyramid=2 / b_adapt=1 / b_bias=0 / direct=1 / weightb=1 / open_gop=0 / weightp=2 / keyint=50 / keyint_min=26 / scenecut=0 / intra_refresh=0 / rc_lookahead=40 / rc=abr / mbtree=1 / bitrate=3000 / ratetol=1.0 / qcomp=0.60 / qpmin=0 / qpmax=69 / qpstep=4 / vbv_maxrate=3900 / vbv_bufsize=4500 / nal_hrd=none / filler=0 / ip_ratio=1.40 / aq=1:1.00 Codec configuration box                  : avcC Audio ID                                       : 2 Format                                   : AAC LC Format/Info                              : Advanced Audio Codec Low Complexity Codec ID                                 : mp4a-40-2 Duration                                 : 2 h 12 min Bit rate mode                            : Constant Bit rate                                 : 96.0 kb/s Channel(s)                               : 2 channels Channel layout                           : L R Sampling rate                            : 48.0 kHz Frame rate                               : 46.875 FPS (1024 SPF) Compression mode                         : Lossy Stream size                              : 89.9 MiB (3%) Default                                  : Yes Alternate group                          : 1


   


Related Torrents




Recent Searches

Home - Browse Torrents - Upload Torrent - Recent Torrents - Login - Register - FAQ

Can't load ExtraTorrent.Network
2006-2018 ExtraTorrent.Network