Loading...
Loading...

ExtraTorrent

Login   |   Register   |   Home
loading...
Browse Torrents
| Search Cloud | | | | | FAQ  
» » Truth Or Dare 2018 720p BluRay x264 Dual ORG Hindi PGS English Subtitle English Audio - MoviesMB

Download Truth Or Dare 2018 720p BluRay x264 Dual ORG Hindi PGS English Subtitle English Audio - MoviesMB extratorrent


Download torrent: Download Magnet Truth Or Dare 2018 720p BluRay x264 Dual ORG Hindi PGS English Subtitle English Audio - MoviesMB
Info hash D3A485DEB4147C0DAA064D438C750BA3505F6E3F
Torrent ID13918352
Comments: Sort Read Comments
Category: Movies
Health:
 Seeders: 23 |  Leechers: 19 |  Completed: 1031
Torrent language: Hindi Hindi
Total Size: 929.9 MB
Uploader: abuhamza420 Trusted Uploader Site Friend Superman Sun
Torrent added: 08-11-2018, 17:40:05
Views: 98



Extratorrent Download Torrent









Truth Or Dare 2018 720p BluRay x264 Dual ORG Hindi PGS English Subtitle English Audio - MoviesMB


MoviesMB.Com


Downloadhub.Icu


Buy PowerFull VPS And RDP From RDPArena.com

Use Coupon EXTRADESI get 30% Discount on All RDP and VPS Plans






Sample


Video
ID : 1
Format : AVC
Format/Info : Advanced Video Codec
Format profile : [email protected]
Format settings : CABAC / 4 Ref Frames
Format settings, CABAC : Yes
Format settings, RefFrames : 4 frames
Codec ID : V_MPEG4/ISO/AVC
Duration : 1 h 40 min
Bit rate : 1 050 kb/s
Width : 1 280 pixels
Height : 534 pixels
Display aspect ratio : 2.40:1
Original display aspect ratio : 2.40:1
Frame rate mode : Constant
Frame rate : 23.976 (24000/1001) FPS
Color space : YUV
Chroma subsampling : 4:2:0
Bit depth : 8 bits
Scan type : Progressive
Bits/(Pixel*Frame) : 0.064
Stream size : 755 MiB (82%)
Title : MoviesMB.com
Language : English
Default : Yes
Forced : No

Audio
ID : 2
Format : AAC
Format/Info : Advanced Audio Codec
Format profile : LC
Codec ID : A_AAC-2
Duration : 1 h 40 min
Bit rate : 147 kb/s
Channel(s) : 2 channels
Channel positions : Front: L R
Sampling rate : 48.0 kHz
Frame rate : 46.875 FPS (1024 SPF)
Compression mode : Lossy
Delay relative to video : -43 ms
Stream size : 106 MiB (11%)
Language : English
Default : Yes
Forced : No

Text #1
ID : 3
Format : PGS
Codec ID : S_HDMV/PGS
Codec ID/Info : Picture based subtitle format used on BDs/HD-DVDs
Duration : 1 h 39 min
Bit rate : 32.5 kb/s
Count of elements : 3045
Stream size : 23.2 MiB (3%)
Language : Hindi
Default : Yes
Forced : No

Text #2
ID : 4
Format : PGS
Codec ID : S_HDMV/PGS
Codec ID/Info : Picture based subtitle format used on BDs/HD-DVDs
Duration : 1 h 39 min
Bit rate : 47.7 kb/s
Count of elements : 3451
Stream size : 34.0 MiB (4%)
Language : English
Default : No
Forced : No



Truth Or Dare 2018 720p BluRay x264 Dual ORG Hindi PGS English Subtitle English Audio - MoviesMB
















   


Related Torrents




Recent Searches

Home - Browse Torrents - Upload Torrent - Recent Torrents - Login - Register - FAQ

Can't load ExtraTorrent.Network
2006-2018 ExtraTorrent.Network