Loading...
Loading...

ExtraTorrent

Login   |   Register   |   Home
loading...
Browse Torrents
| Search Cloud | | | | | FAQ  
» » Backstabbing for Beginners - Giochi di potere (2018) 720p H264 italian english Ac3-5 1 sub ita eng-MIRCrew

Download Backstabbing for Beginners - Giochi di potere (2018) 720p H264 italian english Ac3-5 1 sub ita eng-MIRCrew extratorrent


Download torrent: Download Magnet Backstabbing for Beginners - Giochi di potere (2018) 720p H264 italian english Ac3-5 1 sub ita eng-MIRCrew
Info hash C7DE61BF3468244769EDD0390C65FC982B8A9B90
Torrent ID13918307
Comments: Sort Read Comments
Category: Movies
Health:
 Seeders: 98 |  Leechers: 33 |  Completed: 2490
Torrent language: English English
Total Size: 2.1 GB
Uploader: robbyrs Trusted Uploader Site Friend Superman Sun
Torrent added: 08-11-2018, 16:00:06
Views: 100



Extratorrent Download Torrent



Backstabbing for Beginners - Giochi di potere (2018).720p.H264.italian.english.Ac3-5.1.sub.ita.eng-MIRCrew


NO FOUND ONLY ORIGINAL RELEASE



My release is always in double track audio italian and Original audio
for select it use VLC or dvd player home
not use wmp

Giochi di potere - Backstabbing for Beginners (2018)

Quality MIRCrew on HD 720p da 2,1 gb







GENERE: Drammatico, Thriller
ANNO: 2018
REGIA: Per Fly
PAESE: Danimarca, Canada, USA
DURATA: 108 Min



Theo James, Ben Kingsley, Jacqueline Bisset, Rossif Sutherland, Rachel Wilson, Brian Markinson, Belçim Bilgin, Daniela Lavender, Aidan Devine, Mishu Vellani



il film diretto da Per Fly, racconta la storia di Michael (Theo James), un giovane idealista che ottiene il lavoro dei suoi sogni alle Nazioni Unite come coordinatore del programma "Oil for Food". Ma a volte i sogni nascondono una cruda e sconfortante realtà



A young program coordinator at the United Nations stumbles upon a conspiracy involving Iraq's oil reserves.









General
Unique ID : 313732112933634013328650266097448969889 (0xEC069B69B10F0A1B30B6E2EB0C2CE6A1)
Complete name : Backstabbing for Beginners (2018).720p.h264.ita.eng.sub.ita.eng-MIRCrew\Backstabbing for Beginners (2018).720p.h264.ita.eng.sub.ita.eng-MIRCrew.mkv
Format : Matroska
Format version : Version 2
File size : 2.12 GiB
Duration : 1h 48mn
Overall bit rate : 2 799 Kbps
Movie name : MIRCrew
Encoded date : UTC 2018-11-04 15:47:10
Writing application : Lavf54.63.100
Writing library : Lavf54.63.100

Video
ID : 1
Format : AVC
Format/Info : Advanced Video Codec
Format profile : [email protected]
Format settings, CABAC : Yes
Format settings, ReFrames : 2 frames
Codec ID : V_MPEG4/ISO/AVC
Duration : 1h 48mn
Bit rate : 1 900 Kbps
Width : 1 264 pixels
Height : 528 pixels
Display aspect ratio : 2.40:1
Frame rate mode : Variable
Frame rate : 24.000 fps
Color space : YUV
Chroma subsampling : 4:2:0
Bit depth : 8 bits
Scan type : Progressive
Bits/(Pixel*Frame) : 0.119
Stream size : 1.40 GiB (66%)
Writing library : x264 core 130 r2273
Encoding settings : cabac=1 / ref=2 / deblock=1:0:0 / analyse=0x1:0x131 / me=hex / subme=7 / psy=1 / psy_rd=1.00:0.00 / mixed_ref=0 / me_range=16 / chroma_me=1 / trellis=1 / 8x8dct=0 / cqm=0 / deadzone=21,11 / fast_pskip=1 / chroma_qp_offset=-2 / threads=6 / lookahead_threads=1 / sliced_threads=0 / nr=0 / decimate=1 / interlaced=0 / bluray_compat=0 / constrained_intra=0 / bframes=3 / b_pyramid=0 / b_adapt=1 / b_bias=0 / direct=3 / weightb=1 / open_gop=0 / weightp=2 / keyint=240 / keyint_min=24 / scenecut=40 / intra_refresh=0 / rc_lookahead=40 / rc=abr / mbtree=1 / bitrate=1900 / ratetol=1.0 / qcomp=0.60 / qpmin=10 / qpmax=69 / qpstep=4 / vbv_maxrate=24000 / vbv_bufsize=24000 / nal_hrd=none / ip_ratio=1.40 / aq=1:1.00
Language : Italian
Default : Yes
Forced : No
DURATION : 01:48:13.042000000
NUMBER_OF_FRAMES : 155833
NUMBER_OF_BYTES : 8064565359
_STATISTICS_WRITING_APP : mkvmerge v28.2.0 ('The Awakening') 64-bit
_STATISTICS_WRITING_DATE_UTC : 2018-11-03 01:02:54
_STATISTICS_TAGS : BPS DURATION NUMBER_OF_FRAMES NUMBER_OF_BYTES

Audio #1
ID : 2
Format : AC-3
Format/Info : Audio Coding 3
Mode extension : CM (complete main)
Codec ID : A_AC3
Duration : 1h 48mn
Bit rate mode : Constant
Bit rate : 448 Kbps
Channel(s) : 6 channels
Channel positions : Front: L C R, Side: L R, LFE
Sampling rate : 48.0 KHz
Bit depth : 16 bits
Compression mode : Lossy
Delay relative to video : 1mn 5s
Stream size : 347 MiB (16%)
Title : ITA
Language : Italian
Default : Yes
Forced : No
DURATION : 01:48:02.880000000
NUMBER_OF_FRAMES : 202590
NUMBER_OF_BYTES : 518630400
_STATISTICS_WRITING_APP : mkvmerge v28.2.0 ('The Awakening') 64-bit
_STATISTICS_WRITING_DATE_UTC : 2018-11-03 01:02:54
_STATISTICS_TAGS : BPS DURATION NUMBER_OF_FRAMES NUMBER_OF_BYTES

Audio #2
ID : 3
Format : AC-3
Format/Info : Audio Coding 3
Mode extension : CM (complete main)
Codec ID : A_AC3
Duration : 1h 48mn
Bit rate mode : Constant
Bit rate : 448 Kbps
Channel(s) : 6 channels
Channel positions : Front: L C R, Side: L R, LFE
Sampling rate : 48.0 KHz
Bit depth : 16 bits
Compression mode : Lossy
Delay relative to video : 1mn 5s
Stream size : 347 MiB (16%)
Title : ENG
Language : English
Default : No
Forced : No
DURATION : 01:48:13.088000000
NUMBER_OF_FRAMES : 202909
NUMBER_OF_BYTES : 519447040
_STATISTICS_WRITING_APP : mkvmerge v28.2.0 ('The Awakening') 64-bit
_STATISTICS_WRITING_DATE_UTC : 2018-11-03 01:02:54
_STATISTICS_TAGS : BPS DURATION NUMBER_OF_FRAMES NUMBER_OF_BYTES

Menu
00:00:00.000 : :00:00:00.000
00:06:17.458 : :00:06:17.458
00:13:55.625 : :00:13:55.625
00:20:27.666 : :00:20:27.666
00:26:45.750 : :00:26:45.750
00:34:11.333 : :00:34:11.333
00:39:13.499 : :00:39:13.499
00:47:02.249 : :00:47:02.249
00:55:08.666 : :00:55:08.666
01:01:05.374 : :01:01:05.374
01:07:58.124 : :01:07:58.124
01:13:16.041 : :01:13:16.041
01:20:38.458 : :01:20:38.458
01:28:07.166 : :01:28:07.166
01:34:40.332 : :01:34:40.332
01:38:59.791 : :01:38:59.791






   


Related Torrents




Recent Searches

Home - Browse Torrents - Upload Torrent - Recent Torrents - Login - Register - FAQ

Can't load ExtraTorrent.Network
2006-2018 ExtraTorrent.Network