ExtraTorrent

Login   |   Register   |   Home
Loading...
Browse Torrents
| Search Cloud | | | | | FAQ  
» » Bad Boys DuoLogy (1995 - 2013) 1080p BluRay Dual Audio Hindi - English - MSUBS ~ Ranvijay

Download Bad Boys DuoLogy (1995 - 2013) 1080p BluRay Dual Audio Hindi - English - MSUBS ~ Ranvijay extratorrent


Download torrent: Download Magnet Bad Boys DuoLogy (1995 - 2013) 1080p BluRay Dual Audio Hindi - English - MSUBS ~ Ranvijay
Info hash 376F0F112ABE4889848B62A9F24D0199C3D7E54A
Torrent ID13918299
Comments: Sort Read Comments
Category: Movies
Health:
 Seeders: 3 |  Leechers: 3 |  Completed: 59
Torrent language: Hindi Hindi
Total Size: 11.1 GB
Uploader: TheFighter Trusted Uploader Site Friend Superman Sun
Torrent added: 08-11-2018, 15:30:05
Views: 65



Extratorrent Download Torrent











Bad Boys DuoLogy (1995 - 2013) 1080p BluRay Dual Audio Hindi - English - MSUBS ~ Ranvijay

Thanks To Punisher For Hindi Audio

Buy RDP Online




Bad Boys (1995) 1080p BluRay x264 Dual Audio [Hindi DD2.0 - English DD5.1] - MSUBS ~ Ranvijay


Format : Matroska
Format version : Version 4 / Version 2
File size : 4.75 GiB
Duration : 1 h 58 min
Overall bit rate : 5 727 kb/s
Movie name : Bad Boys (1995) 1080p BluRay x264 Dual Audio [Hindi DD2.0 - English DD5.1] - MSUBS ~ Ranvijay

Video
ID : 1
Format : AVC
Format/Info : Advanced Video Codec
Duration : 1 h 58 min
Bit rate : 5 000 kb/s
Width : 1 920 pixels
Height : 1 036 pixels
Display aspect ratio : 1.85:1
Frame rate mode : Constant
Frame rate : 23.976 (24000/1001) FPS
Color space : YUV
Chroma subsampling : 4:2:0
Bit depth : 8 bits
Scan type : Progressive
Bits/(Pixel*Frame) : 0.105
Stream size : 4.15 GiB (87%)
Title : ~Ranvijay~

Audio #1
ID : 2
Format : AC-3
Format/Info : Audio Coding 3
Bit rate mode : Constant
Bit rate : 224 kb/s
Channel(s) : 2 channels
Channel positions : Front: L R
Title : ~Ranvijay~
Language : Hindi

Audio #2
ID : 3
Format : AC-3
Format/Info : Audio Coding 3
Bit rate mode : Constant
Bit rate : 448 kb/s
Channel(s) : 6 channels
Channel positions : Front: L C R, Side: L R, LFE
Language : English

Text #1
ID : 4
Format : PGS
Title : ~Ranvijay~
Language : English

Text #2
ID : 5
Format : PGS
Muxing mode : zlib
Codec ID : S_HDMV/PGS
Codec ID/Info : Picture based subtitle format used on BDs/HD-DVDs
Duration : 1 h 54 min
Bit rate : 38.3 kb/s
Count of elements : 3474
Stream size : 31.3 MiB (1%)
Title : ~Ranvijay~
Language : Hindi
Default : No
Forced : No

Text #3
ID : 6
Format : PGS
Title : ~Ranvijay~ [Director Commentary]
Language : English

Text #4
ID : 7
Title : ~Ranvijay~
Language : English

Chapter : Yes [Original BD Chapter]





Bad Boys II (2005) 1080p BluRay x264 Dual Audio [Hindi DD5.1 - English DD5.1] - MSUBS ~ Ranvijay


Format : Matroska
Format version : Version 4 / Version 2
File size : 6.27 GiB
Duration : 2 h 26 min
Overall bit rate : 6 114 kb/s
Movie name : Bad Boys II (2005) 1080p BluRay x264 Dual Audio [Hindi DD5.1 - English DD5.1] - MSUBS ~ Ranvijay

Video
ID : 1
Format : AVC
Format/Info : Advanced Video Codec
Duration : 2 h 26 min
Bit rate : 5 000 kb/s
Width : 1 920 pixels
Height : 816 pixels
Display aspect ratio : 2.35:1
Frame rate mode : Constant
Frame rate : 23.976 (24000/1001) FPS
Color space : YUV
Chroma subsampling : 4:2:0
Bit depth : 8 bits
Scan type : Progressive
Bits/(Pixel*Frame) : 0.133
Stream size : 5.12 GiB (82%)
Title : ~Ranvijay~

Audio #1
ID : 2
Format : AC-3
Format/Info : Audio Coding 3
Bit rate mode : Constant
Bit rate : 640 kb/s
Channel(s) : 6 channels
Channel positions : Front: L C R, Side: L R, LFE
Language : Hindi

Audio #2
ID : 3
Format : AC-3
Format/Info : Audio Coding 3
Bit rate mode : Constant
Bit rate : 448 kb/s
Channel(s) : 6 channels
Channel positions : Front: L C R, Side: L R, LFE
Language : English

Text #1
ID : 4
Format : PGS
Language : English

Text #2
ID : 5
Format : VobSub
Language : Hindi

Chapter : Yes [Original BD Chapter]





Don't walk as you are king, walk as you don't care who the king is....!!





   


Related Torrents




Recent Searches

Home - Browse Torrents - Upload Torrent - Recent Torrents - Login - Register - FAQ

Can't load ExtraTorrent.Network
2006-2018 ExtraTorrent.Network