Loading...
Loading...

ExtraTorrent

Login   |   Register   |   Home
loading...
Browse Torrents
| Search Cloud | | | | | FAQ  
» » Incredibles 2 (2018) x 1600 (2160p) HDR 5 1 x265 10bit Phun Psyz

Download Incredibles 2 (2018) x 1600 (2160p) HDR 5 1 x265 10bit Phun Psyz extratorrent


Download torrent: Download Magnet Incredibles 2 (2018) x 1600 (2160p) HDR 5 1 x265 10bit Phun Psyz
Info hash B8222EEBAD095828494D2DA09055DEC978A1A60A
Torrent ID13918294
Comments: Sort Read Comments
Category: Movies
Health:
 Seeders: 23 |  Leechers: 5 |  Completed: 793
Torrent language: English English
Total Size: 2.5 GB
Uploader: PhunPsyz Trusted Uploader Site Friend Superman Sun
Torrent added: 08-11-2018, 15:15:05
Views: 87



Extratorrent Download Torrent



www.imdb.com/title/tt3606756/

Bob Parr (Mr. Incredible) is left to care for the kids while Helen (Elastigirl) is out saving the world.

Source: FGT 4K Remux







Format : Matroska
Format version : Version 4 / Version 2
File size : 2.47 GiB
Duration : 1 h 57 min
Overall bit rate : 3 003 kb/s

Video
ID : 1
Format : HEVC
Format/Info : High Efficiency Video Coding
Format profile : Main [email protected]@High
Codec ID : V_MPEGH/ISO/HEVC
Duration : 1 h 57 min
Bit rate : 2 623 kb/s
Width : 3 840 pixels
Height : 1 600 pixels
Display aspect ratio : 2.40:1
Frame rate mode : Constant
Frame rate : 23.976 (24000/1001) FPS
Color space : YUV
Chroma subsampling : 4:2:0
Bit depth : 10 bits
Bits/(Pixel*Frame) : 0.018
Stream size : 2.16 GiB (87%)
Writing library : x265 2.6:[Windows][GCC 7.1.0][64 bit] 10bit

Audio
ID : 2
Format : AC-3
Format/Info : Audio Coding 3
Commercial name : Dolby Digital
Codec ID : A_AC3
Duration : 1 h 57 min
Bit rate mode : Constant
Bit rate : 320 kb/s
Channel(s) : 6 channels
Channel layout : L R C LFE Ls Rs
Sampling rate : 48.0 kHz
Frame rate : 31.250 FPS (1536 SPF)
Bit depth : 16 bits
Compression mode : Lossy
Stream size : 270 MiB (11%)
Title : Surround
Language : English

Text
Language : English
Language : French
Language : Spanish
Default : No
Forced : No





   


Related Torrents
Browse Movies Torrents Related Torrents added recently in our database RSS  
Added  Size  Sort S  Sort L  Sort Health
Download Magnet English  Forged_in_Fire_S05E36_720p_WEB_h264-TBS[TGx] in TV, by mazemaze16 5 minutes 798.8 MB 66676 33563
Download Magnet English  Storage_Wars_S12E04_480p_x264-mSD_[eztv] in TV, by EZTVag 5 minutes 145.2 MB 28393 71975
Download Magnet Hindi  Yamla_Pagla_Deewana_Phir_Se_2018_Hindi_720p_WEB-DL_x264_[1GB___ in Movies, by TorntCounter 5 minutes 1.1 GB 91660 31673
Download Magnet English  Room_104_S02E01_1080p_WEB_H264-MEMENTO[TGx] in TV, by mazemaze16 5 minutes 1.2 GB 75161 32929
Download Magnet English  The_Little_Witch_2018_720p_AMZN_WEB-DL_DDP5_1_H264_LLG in Movies, by LifeLongg 5 minutes 1.3 GB 12820 59548
Download Magnet English  Forged_in_Fire_Knife_or_Death_S02E07_WEB_h264-TBS_[eztv] in TV, by EZTVag 5 minutes 580.4 MB 24212 26945
Download Magnet English  All_American_S01E05_XviD-AFG[TGx] in TV, by mazemaze16 10 minutes 415.0 MB 65334 38068
Download Magnet English  Forged_in_Fire_S05E36_WEB_h264-TBS_[eztv] in TV, by EZTVag 10 minutes 583.0 MB 40634 42629
Download Magnet English  Forged_in_Fire_S05E36_WEB_h264-TBS[TGx] in TV, by mazemaze16 10 minutes 585.2 MB 22364 95080
Download Magnet English  Storage_Wars_S12E04_480p_x264-mSD[TGx] in TV, by mazemaze16 10 minutes 146.2 MB 82697 19039




Recent Searches

Home - Browse Torrents - Upload Torrent - Recent Torrents - Login - Register - FAQ

Can't load ExtraTorrent.Network
2006-2018 ExtraTorrent.Network