ExtraTorrent

Login   |   Register   |   Home
Browse Torrents
| Search Cloud | | | | | FAQ  
» » 18+ Traffik 2018 720p BluRay x264 LLG

Download 18+ Traffik 2018 720p BluRay x264 LLG extratorrent


Download torrent: Download Magnet 18+ Traffik 2018 720p BluRay x264 LLG
Info hash 538E2DEAF24495DB76F9BD0B1997ACA0FFA85741
Torrent ID13918258
Comments: Sort Read Comments
Category: Movies
Health:
 Seeders: 3 |  Leechers: n/a |  Completed: 3250
Torrent language: English English
Total Size: 1.2 GB
Uploader: LifeLongg Trusted Uploader Site Friend Superman Sun
Torrent added: 08-11-2018, 14:30:05
Views: 186



Extratorrent Download Torrent





******************************Thumbnail:**********************



******************************Screenshots:********************

Screenshot 1

Screenshot 2

Screenshot 3

Screenshot 4

Screenshot 5

Screenshot 6

Screenshot 7

Screenshot 8

Screenshot 9

******************************Poster:**********************



************************************************************

18+.Traffik.2018.720p.BluRay.x264.LLG.mp4
Format : MPEG-4
Format profile : Base Media
Codec ID : isom (isom/iso2/avc1/mp41)
File size : 1.19 GiB
Duration : 1 h 36 min
Overall bit rate : 1 757 kb/s
Writing application : Lavf57.56.101

Video
ID : 1
Format : AVC
Format/Info : Advanced Video Codec
Format profile : [email protected]
Format settings : CABAC / 4 Ref Frames
Format settings, CABAC : Yes
Format settings, RefFrames : 4 frames
Codec ID : avc1
Codec ID/Info : Advanced Video Coding
Duration : 1 h 36 min
Bit rate : 1 500 kb/s
Width : 1 280 pixels
Height : 536 pixels
Display aspect ratio : 2.40:1
Frame rate mode : Constant
Frame rate : 23.976 (23976/1000) FPS
Color space : YUV
Chroma subsampling : 4:2:0
Bit depth : 8 bits
Scan type : Progressive
Bits/(Pixel*Frame) : 0.091
Stream size : 1.01 GiB (85%)


Audio
ID : 2
Format : AC-3
Format/Info : Audio Coding 3
Commercial name : Dolby Digital
Codec ID : ac-3
Duration : 1 h 36 min
Bit rate mode : Constant
Bit rate : 256 kb/s
Channel(s) : 6 channels
Channel layout : L R C LFE Ls Rs
Sampling rate : 48.0 kHz
Frame rate : 31.250 FPS (1536 SPF)
Bit depth : 16 bits
Compression mode : Lossy
Stream size : 177 MiB (15%)
Language : English
Service kind : Complete Main
Default : Yes
Alternate group : 1



********************************************************





   


Related Torrents




Recent Searches

Home - Browse Torrents - Upload Torrent - Recent Torrents - Login - Register - FAQ

Can't load ExtraTorrent.Network
2006-2018 ExtraTorrent.Network