ExtraTorrent

Login   |   Register   |   Home
Loading...
Loading...
Browse Torrents
| Search Cloud | | | | | FAQ  
» » 18+ Traffik 2018 720p BluRay x264 LLG

Download 18+ Traffik 2018 720p BluRay x264 LLG extratorrent


Download torrent: Download Magnet 18+ Traffik 2018 720p BluRay x264 LLG
Info hash 538E2DEAF24495DB76F9BD0B1997ACA0FFA85741
Torrent ID13918258
Comments: Sort Read Comments
Category: Movies
Health:
 Seeders: 1 |  Leechers: 1 |  Completed: 10
Torrent language: English English
Total Size: 1.2 GB
Uploader: LifeLongg Trusted Uploader Site Friend Superman Sun
Torrent added: 08-11-2018, 14:30:05
Views: 337



Extratorrent Download Torrent





******************************Thumbnail:**********************



******************************Screenshots:********************

Screenshot 1

Screenshot 2

Screenshot 3

Screenshot 4

Screenshot 5

Screenshot 6

Screenshot 7

Screenshot 8

Screenshot 9

******************************Poster:**********************



************************************************************

18+.Traffik.2018.720p.BluRay.x264.LLG.mp4
Format : MPEG-4
Format profile : Base Media
Codec ID : isom (isom/iso2/avc1/mp41)
File size : 1.19 GiB
Duration : 1 h 36 min
Overall bit rate : 1 757 kb/s
Writing application : Lavf57.56.101

Video
ID : 1
Format : AVC
Format/Info : Advanced Video Codec
Format profile : [email protected]
Format settings : CABAC / 4 Ref Frames
Format settings, CABAC : Yes
Format settings, RefFrames : 4 frames
Codec ID : avc1
Codec ID/Info : Advanced Video Coding
Duration : 1 h 36 min
Bit rate : 1 500 kb/s
Width : 1 280 pixels
Height : 536 pixels
Display aspect ratio : 2.40:1
Frame rate mode : Constant
Frame rate : 23.976 (23976/1000) FPS
Color space : YUV
Chroma subsampling : 4:2:0
Bit depth : 8 bits
Scan type : Progressive
Bits/(Pixel*Frame) : 0.091
Stream size : 1.01 GiB (85%)


Audio
ID : 2
Format : AC-3
Format/Info : Audio Coding 3
Commercial name : Dolby Digital
Codec ID : ac-3
Duration : 1 h 36 min
Bit rate mode : Constant
Bit rate : 256 kb/s
Channel(s) : 6 channels
Channel layout : L R C LFE Ls Rs
Sampling rate : 48.0 kHz
Frame rate : 31.250 FPS (1536 SPF)
Bit depth : 16 bits
Compression mode : Lossy
Stream size : 177 MiB (15%)
Language : English
Service kind : Complete Main
Default : Yes
Alternate group : 1



********************************************************





   


Related Torrents
Browse Movies Torrents Related Torrents added recently in our database RSS  
Added  Size  Sort S  Sort L  Sort Health
Download Magnet English  Pawparazzi_2019_HDRip_XviD_AC3-EVO in Movies, by Silmarillion 6 minutes 1.3 GB 92796 28550
Download Magnet English  The_Russian_Bride_2019_HDRip_XviD_AC3-EVO in Movies, by Silmarillion 6 minutes 1.3 GB 56858 84565
Download Magnet English  Greyzone_S01E10_720p_HDTV_x264-CBFM_[eztv] in TV, by EZTVag 6 minutes 806.0 MB 70192 81413
Download Magnet English  Vampz_2019_HDRip_XviD_AC3-EVO in Movies, by Silmarillion 6 minutes 1.3 GB 82763 34549
Download Magnet English  Teen_Cribs_S02E30_WEB_H264-GIMINI_[eztv] in TV, by EZTVag 6 minutes 314.8 MB 26686 51537
Download Magnet English  Pawparazzi_2019_HDRip_XviD_AC3-EVO[EtMovies] in Movies, by EtHD 6 minutes 1.3 GB 10768 65480
Download Magnet English  Dom_on_the_Spot_S03E04_480p_x264-mSD_[eztv] in TV, by EZTVag 6 minutes 159.2 MB 76046 29073
Download Magnet Hindi  Simmba_(2019)_720p_+_1080p_WEB-DL_x264_ESubs_AAC_Hindi_1_36G___ in Movies, by zeewas 6 minutes 1.4 GB 16316 5034
Download Magnet English  The_Magicians_S04E09_The_Serpent_1080p_5_1_-_2_0_x264_Phun_P___ in TV, by PhunPsyz 11 minutes 755.6 MB 64725 2741
Download Magnet English  Teen_Cribs_S02E26_WEB_H264-GIMINI_[eztv] in TV, by EZTVag 16 minutes 310.3 MB 60597 6021




Recent Searches

Home - Browse Torrents - Upload Torrent - Recent Torrents - Login - Register - FAQ

Can't load ExtraTorrent.Network
2006-2018 ExtraTorrent.Network