Loading...
Loading...

ExtraTorrent

Login   |   Register   |   Home
loading...
Browse Torrents
| Search Cloud | | | | | FAQ  
» » 18+ Traffik 2018 720p BluRay x264 LLG

Download 18+ Traffik 2018 720p BluRay x264 LLG extratorrent


Download torrent: Download Magnet 18+ Traffik 2018 720p BluRay x264 LLG
Info hash 538E2DEAF24495DB76F9BD0B1997ACA0FFA85741
Torrent ID13918258
Comments: Sort Read Comments
Category: Movies
Health:
 Seeders: 8 |  Leechers: 4 |  Completed: 586
Torrent language: English English
Total Size: 1.2 GB
Uploader: LifeLongg Trusted Uploader Site Friend Superman Sun
Torrent added: 08-11-2018, 14:30:05
Views: 44



Extratorrent Download Torrent prostylex : 18+.Traffik.2018.720p.BluRay.x264.LLG
www.prostylex.com/torrents-details.php?id=57507&hit=1
Download Traffik 2018 720p BluRay x264 LLG - …
https://sanet.st/blogs/filmax/traffik_p_bluray_x_llg.2641573.html
"18+.Traffik.2018.BDRip.x264.AAC.LLG" - Latest …
https://hon3yhd.net/torrents-details.php?id=70957
18+.Traffik.2018.DVDRip.XviD.AC3.With.Sample.LLG …
thepitch.com/.../18+.Traffik.2018.DVDRip.XviD.AC3.With.Sample.LLG.html
18+ Red Sparrow 2018 720p BluRay x264 Hindi …
www.torrent-forest.top/18-red-sparrow-2018-720p-bluray-x264-hindi...
18+.Mother!.2017.720p.BluRay.x264.LLG - …
https://torrentproject2.se/t3-3382095/18-Mother-2017-720p-BluRay...
18+ Traffik 2018 Movies BRRip x264 AAC with …
thepitch.com/torrent/vlqadmey/18++Traffik+2018+Movies+BRRip+x264...
Traffik 2018 Torrents Download
https://torrentdownload.unblockall.org/search?q=Traffik+2018
Popular 24 hours Movie Torrents | 1337x
https://1337x.st/popular-movies





******************************Thumbnail:**********************



******************************Screenshots:********************

Screenshot 1

Screenshot 2

Screenshot 3

Screenshot 4

Screenshot 5

Screenshot 6

Screenshot 7

Screenshot 8

Screenshot 9

******************************Poster:**********************



************************************************************

18+.Traffik.2018.720p.BluRay.x264.LLG.mp4
Format : MPEG-4
Format profile : Base Media
Codec ID : isom (isom/iso2/avc1/mp41)
File size : 1.19 GiB
Duration : 1 h 36 min
Overall bit rate : 1 757 kb/s
Writing application : Lavf57.56.101

Video
ID : 1
Format : AVC
Format/Info : Advanced Video Codec
Format profile : [email protected]
Format settings : CABAC / 4 Ref Frames
Format settings, CABAC : Yes
Format settings, RefFrames : 4 frames
Codec ID : avc1
Codec ID/Info : Advanced Video Coding
Duration : 1 h 36 min
Bit rate : 1 500 kb/s
Width : 1 280 pixels
Height : 536 pixels
Display aspect ratio : 2.40:1
Frame rate mode : Constant
Frame rate : 23.976 (23976/1000) FPS
Color space : YUV
Chroma subsampling : 4:2:0
Bit depth : 8 bits
Scan type : Progressive
Bits/(Pixel*Frame) : 0.091
Stream size : 1.01 GiB (85%)


Audio
ID : 2
Format : AC-3
Format/Info : Audio Coding 3
Commercial name : Dolby Digital
Codec ID : ac-3
Duration : 1 h 36 min
Bit rate mode : Constant
Bit rate : 256 kb/s
Channel(s) : 6 channels
Channel layout : L R C LFE Ls Rs
Sampling rate : 48.0 kHz
Frame rate : 31.250 FPS (1536 SPF)
Bit depth : 16 bits
Compression mode : Lossy
Stream size : 177 MiB (15%)
Language : English
Service kind : Complete Main
Default : Yes
Alternate group : 1



********************************************************





   


Related Torrents
Browse Movies Torrents Related Torrents added recently in our database RSS  
Added  Size  Sort S  Sort L  Sort Health
Download Magnet English  Strictly_It_Takes_Two_S16E39_720p_WEB_h264-KOMPOST_[eztv] in TV, by EZTVag 5 minutes 1.1 GB 63694 8193
Download Magnet English  The_Real_Housewives_of_Cheshire_S08E11_WEB_x264-KOMPOST_[ezt___ in TV, by EZTVag 5 minutes 507.8 MB 5408 87340
Download Magnet English  American_Horror_Story_8x02_Il_Mattino_Dopo_ITA_ENG_1080p_AMZ___ in TV, by ppb1 5 minutes 2.3 GB 26484 8444
Download Magnet English  Embarrassing_Pets_S01E12_720p_HDTV_X264-CREED_[eztv] in TV, by EZTVag 5 minutes 444.6 MB 99127 45480
Download Magnet English  The_Romanoffs_S01E07_1080p_WEB_h264-SKGTV[TGx] in TV, by mazemaze16 15 minutes 3.9 GB 74020 52400
Download Magnet English  The_Romanoffs_S01E07_XviD-AFG[TGx] in TV, by mazemaze16 15 minutes 628.7 MB 82402 45537
Download Magnet English  EastEnders_2018_11_15_720p_WEB_h264-KOMPOST_[eztv] in TV, by EZTVag 15 minutes 2.1 GB 60662 52204
Download Magnet English  Emmerdale_2018_11_15_WEB_x264-KOMPOST_[eztv] in TV, by EZTVag 15 minutes 490.8 MB 60064 76992
Download Magnet English  The_Romanoffs_S01E07_WEB_h264-SKGTV[TGx] in TV, by mazemaze16 20 minutes 458.2 MB 92734 39908
Download Magnet English  The_Romanoffs_S01E07_WEB_h264-SKGTV_[eztv] in TV, by EZTVag 20 minutes 456.6 MB 77157 55709




Recent Searches

Home - Browse Torrents - Upload Torrent - Recent Torrents - Login - Register - FAQ

Can't load ExtraTorrent.Network
2006-2018 ExtraTorrent.Network