Website Shifted Kindly Click on Any Button to Enter This Site..





Loading...

                                                                                                                                 .







































































































































































ExtraTorrent

Login   |   Register   |   Home
Browse Torrents
| Search Cloud | | | | | FAQ  
» » Thugs of Hindostan 2018 Hindi 720p PRE-DVDRip x264 AAC { TaRa } mkv

Download Thugs of Hindostan 2018 Hindi 720p PRE-DVDRip x264 AAC { TaRa } mkv extratorrent


Download torrent: Download Magnet Thugs of Hindostan 2018 Hindi 720p PRE-DVDRip x264 AAC { TaRa } mkv
Info hash F4863135F20A19713A6B5EE7F3EC5E3125C28B83
Torrent ID13918210
Comments: Sort Read Comments
Category: Movies
Health:
 Seeders: 3 |  Leechers: n/a |  Completed: 1
Torrent language: Hindi Hindi
Total Size: 1.3 GB
Uploader: SkTara Trusted Uploader Site Friend Superman Sun
Torrent added: 08-11-2018, 13:25:05
Views: 115



Extratorrent Download Torrent




Thugs of Hindostan 2018 Hindi 720p PRE-DVDRip x264 AAC { TaRa }.mkv


===================================================================
General
Complete name               : Thugs of Hindostan 2018 Hindi 720p PRE-DVDRip x264 AAC { TaRa }.mkv
Format                      : Matroska
Format version              : Version 4
File size                   : 1.33 GiB
Duration                    : 2 h 30 min
Overall bit rate            : 1 264 kb/s
===================================================================
Video
ID                          : 1
Format                      : AVC
Format/Info                 : Advanced Video Codec
Format profile              : [email protected]
Format settings             : CABAC / 4 Ref Frames
Format settings, CABAC      : Yes
Format settings, ReFrames   : 4 frames
Codec ID                    : V_MPEG4/ISO/AVC
Duration                    : 2 h 30 min
Bit rate                    : 1 181 kb/s
Nominal bit rate            : 1 498 kb/s
Width                       : 1 280 pixels
Height                      : 544 pixels
Display aspect ratio        : 2.35:1
Frame rate mode             : Variable
Frame rate                  : 23.976 (24000/1001) FPS
Color space                 : YUV
Chroma subsampling          : 4:2:0
Bit depth                   : 8 bits
Scan type                   : Progressive
Bits/(Pixel*Frame)          : 0.071
Stream size                 : 1.24 GiB (93%)
Title                       : .....::::: TaRa :::::.....
Language                    : Hindi
Default                     : Yes
Forced                      : No
===================================================================
Audio
ID                          : 2
Format                      : AAC LC
Format/Info                 : Advanced Audio Codec Low Complexity
Codec ID                    : A_AAC-2
Duration                    : 2 h 30 min
Bit rate                    : 80.3 kb/s
Channel(s)                  : 2 channels
Channel layout              : L R
Sampling rate               : 44.1 kHz
Frame rate                  : 43.066 FPS (1024 SPF)
Compression mode            : Lossy
Delay relative to video     : -23 ms
Stream size                 : 86.6 MiB (6%)
Title                       : .....::::: TaRa :::::.....
Language                    : Hindi
Default                     : Yes
Forced                      : No
===================================================================




































   


Related Torrents
Browse Movies Torrents Related Torrents added recently in our database RSS  
Added  Size  Sort S  Sort L  Sort Health
Download Magnet English  Sydney_to_the_Max_S01E04_480p_x264-mSD_[eztv] in TV, by EZTVag 6 minutes 116.3 MB 53387 11749
Download Magnet English  Busy_Tonight_2019_02_21_Sonequa_Martin_Green_480p_x264-mSD[T___ in TV, by mazemaze16 6 minutes 113.0 MB 1861 19056
Download Magnet English  Siren_2018_S02E05_1080p_WEB_h264-TBS[TGx] in TV, by mazemaze16 11 minutes 1.4 GB 66963 38876
Download Magnet English  Sydney_to_the_Max_S01E04_WEB_x264-TBS[TGx] in TV, by mazemaze16 11 minutes 188.9 MB 98130 2902
Download Magnet English  Andi_Mack_S03E12_WEB_x264-TBS_[eztv] in TV, by EZTVag 11 minutes 191.9 MB 2108 67285
Download Magnet English  Egg_2018_1080p_WEB-DL_DD5_1_H264-FGT[TGx] in Movies, by mazemaze16 11 minutes 2.9 GB 72254 39242
Download Magnet English  Sydney_to_the_Max_S01E04_720p_WEB_x264-TBS_[eztv] in TV, by EZTVag 11 minutes 570.1 MB 30083 82582
Download Magnet English  Andi_Mack_S03E12_720p_WEB_x264-TBS_[eztv] in TV, by EZTVag 11 minutes 585.1 MB 18008 76027
Download Magnet English  Brooklyn_Nine-Nine_S06E07_iNTERNAL_480p_x264-mSD_[eztv] in TV, by EZTVag 16 minutes 81.1 MB 29026 40756
Download Magnet English  Paddleton_2019_1080p_NF_WEB-DL_DD5_1_H264-CMRG[TGx] in Movies, by mazemaze16 16 minutes 2.4 GB 35048 2042




Recent Searches

Home - Browse Torrents - Upload Torrent - Recent Torrents - Login - Register - FAQ

Can't load ExtraTorrent.Network
2006-2018 ExtraTorrent.Network