ExtraTorrent

Login   |   Register   |   Home
Loading...
Browse Torrents
| Search Cloud | | | | | FAQ  
» » Thugs of Hindostan 2018 Hindi 720p PRE-DVDRip x264 AAC { TaRa } mkv

Download Thugs of Hindostan 2018 Hindi 720p PRE-DVDRip x264 AAC { TaRa } mkv extratorrent


Download torrent: Download Magnet Thugs of Hindostan 2018 Hindi 720p PRE-DVDRip x264 AAC { TaRa } mkv
Info hash F4863135F20A19713A6B5EE7F3EC5E3125C28B83
Torrent ID13918210
Comments: Sort Read Comments
Category: Movies
Health:
 Seeders: 19 |  Leechers: 2 |  Completed: 1468
Torrent language: Hindi Hindi
Total Size: 1.3 GB
Uploader: SkTara Trusted Uploader Site Friend Superman Sun
Torrent added: 08-11-2018, 13:25:05
Views: 91



Extratorrent Download Torrent




Thugs of Hindostan 2018 Hindi 720p PRE-DVDRip x264 AAC { TaRa }.mkv


===================================================================
General
Complete name               : Thugs of Hindostan 2018 Hindi 720p PRE-DVDRip x264 AAC { TaRa }.mkv
Format                      : Matroska
Format version              : Version 4
File size                   : 1.33 GiB
Duration                    : 2 h 30 min
Overall bit rate            : 1 264 kb/s
===================================================================
Video
ID                          : 1
Format                      : AVC
Format/Info                 : Advanced Video Codec
Format profile              : [email protected]
Format settings             : CABAC / 4 Ref Frames
Format settings, CABAC      : Yes
Format settings, ReFrames   : 4 frames
Codec ID                    : V_MPEG4/ISO/AVC
Duration                    : 2 h 30 min
Bit rate                    : 1 181 kb/s
Nominal bit rate            : 1 498 kb/s
Width                       : 1 280 pixels
Height                      : 544 pixels
Display aspect ratio        : 2.35:1
Frame rate mode             : Variable
Frame rate                  : 23.976 (24000/1001) FPS
Color space                 : YUV
Chroma subsampling          : 4:2:0
Bit depth                   : 8 bits
Scan type                   : Progressive
Bits/(Pixel*Frame)          : 0.071
Stream size                 : 1.24 GiB (93%)
Title                       : .....::::: TaRa :::::.....
Language                    : Hindi
Default                     : Yes
Forced                      : No
===================================================================
Audio
ID                          : 2
Format                      : AAC LC
Format/Info                 : Advanced Audio Codec Low Complexity
Codec ID                    : A_AAC-2
Duration                    : 2 h 30 min
Bit rate                    : 80.3 kb/s
Channel(s)                  : 2 channels
Channel layout              : L R
Sampling rate               : 44.1 kHz
Frame rate                  : 43.066 FPS (1024 SPF)
Compression mode            : Lossy
Delay relative to video     : -23 ms
Stream size                 : 86.6 MiB (6%)
Title                       : .....::::: TaRa :::::.....
Language                    : Hindi
Default                     : Yes
Forced                      : No
===================================================================




































   


Related Torrents
Browse Movies Torrents Related Torrents added recently in our database RSS  
Added  Size  Sort S  Sort L  Sort Health
Download Magnet English  Hasan_Minhaj:_Homecoming_King_(2017)_[WEBRip]_[1080p]_[YTS]____ in Movies, by YTSAGx 3 minutes 1.2 GB 84531 35888
Download Magnet English  Billboard_Hot_100_Singles_Chart,_15_December_2018_(2018) in Music, by Freak37 4 minutes 754.4 MB 82604 50454
Download Magnet English  [psychedelic_rock]_(2018)_VA_–_Try_a_Little_Sunshine;_The____ in Music, by sisyphus 4 minutes 1.1 GB 20070 58018
Download Magnet English  ZAYN_-_Icarus_Falls_(2018)_320_KBPS in Music, by Freak37 4 minutes 204.7 MB 84112 86992
Download Magnet English  Black_Ink_Crew_S07E13_WEB_x264-TBS in TV, by Trige 13 minutes 648.3 MB 78635 2740
Download Magnet English  Catfish_The_TV_Show_S07E21_720p_WEB_x264-TBS_[eztv] in TV, by EZTVag 13 minutes 852.8 MB 79351 27235
Download Magnet English  Black_Ink_Crew_S07E13_WEB_x264-TBS[TGx] in TV, by mazemaze16 13 minutes 650.6 MB 67208 4176
Download Magnet English  Catfish_The_TV_Show_S07E21_WEB_x264-TBS_[eztv] in TV, by EZTVag 13 minutes 542.4 MB 3688 94704
Download Magnet English  Catfish_The_TV_Show_S07E21_WEB_x264-TBS in TV, by Trige 13 minutes 542.4 MB 64844 33518
Download Magnet English  Catfish_The_TV_Show_S07E21_720p_WEB_x264-TBS in TV, by Trige 13 minutes 852.8 MB 71593 1154




Recent Searches

Home - Browse Torrents - Upload Torrent - Recent Torrents - Login - Register - FAQ

Can't load ExtraTorrent.Network
2006-2018 ExtraTorrent.Network