ExtraTorrent

Login   |   Register   |   Home
Loading...
Browse Torrents
| Search Cloud | | | | | FAQ  
» » Sword Art Online - Alicization 05 (1080p WEB-DL x265 HEVC 10bit AAC 2 0 theincognito) [UTR]

Download Sword Art Online - Alicization 05 (1080p WEB-DL x265 HEVC 10bit AAC 2 0 theincognito) [UTR] extratorrent


Download torrent: Download Magnet Sword Art Online - Alicization 05 (1080p WEB-DL x265 HEVC 10bit AAC 2 0 theincognito) [UTR]
Info hash F241A26279098AFC31B796903E70AF3632579CEA
Torrent ID13913655
Comments: Sort Read Comments
Category: Anime
Health:
 Seeders: 6 |  Leechers: n/a |  Completed: 227
Torrent language: Japanese Japanese
Total Size: 276.4 MB
Uploader: theincognito Trusted Uploader Site Friend Superman Sun
Torrent added: 04-11-2018, 11:00:05
Views: 38



Extratorrent Download Torrent










Media Information

Media Information

Code:

General
Format : Matroska
Format version : Version 4 / Version 2
File size : 276 MiB
Duration : 23 min 40 s
Overall bit rate : 1 633 kb/s
Encoded date : UTC 2018-11-04 08:26:51
Writing application : mkvmerge v26.0.0 ('In The Game') 64-bit
Writing library : libebml v1.3.6 + libmatroska v1.4.9
Writing frontend : StaxRip v1.9.0.0

Video
ID : 1
Format : HEVC
Format/Info : High Efficiency Video Coding
Format profile : Main [email protected]@Main
Codec ID : V_MPEGH/ISO/HEVC
Duration : 23 min 40 s
Bit rate : 1 501 kb/s
Width : 1 920 pixels
Height : 1 080 pixels
Display aspect ratio : 16:9
Frame rate mode : Constant
Frame rate : 23.976 (24000/1001) FPS
Color space : YUV
Chroma subsampling : 4:2:0
Bit depth : 10 bits
Bits/(Pixel*Frame) : 0.030
Stream size : 254 MiB (92%)
Writing library : x265 2.9+4-471726d3a046:[Windows][MSVC 1915][64 bit] 10bit
Encoding settings : cpuid=1111039 / frame-threads=3 / numa-pools=8 / wpp / no-pmode / no-pme / no-psnr / no-ssim / log-level=2 / input-csp=1 / input-res=1920x1080 / interlace=0 / total-frames=34046 / level-idc=0 / high-tier=1 / uhd-bd=0 / ref=3 / no-allow-non-conformance / no-repeat-headers / annexb / no-aud / no-hrd / info / hash=0 / no-temporal-layers / open-gop / min-keyint=23 / keyint=250 / gop-lookahead=0 / bframes=8 / b-adapt=2 / b-pyramid / bframe-bias=0 / rc-lookahead=50 / lookahead-slices=6 / scenecut=40 / radl=0 / no-intra-refresh / ctu=64 / min-cu-size=8 / no-rect / no-amp / max-tu-size=32 / tu-inter-depth=1 / tu-intra-depth=1 / limit-tu=0 / rdoq-level=0 / dynamic-rd=0.00 / no-ssim-rd / signhide / no-tskip / nr-intra=0 / nr-inter=0 / no-constrained-intra / strong-intra-smoothing / max-merge=2 / limit-refs=3 / no-limit-modes / me=2 / subme=4 / merange=57 / temporal-mvp / weightp / no-weightb / no-analyze-src-pics / deblock=0:0 / sao / no-sao-non-deblock / rd=3 / no-early-skip / rskip / no-fast-intra / no-tskip-fast / no-cu-lossless / no-b-intra / no-splitrd-skip / rdpenalty=0 / psy-rd=2.00 / psy-rdoq=0.00 / no-rd-refine / no-lossless / cbqpoffs=0 / crqpoffs=0 / rc=abr / bitrate=1500 / qcomp=0.60 / qpstep=4 / stats-write=0 / stats-read=2 / cplxblur=20.0 / qblur=0.5 / ipratio=1.40 / pbratio=1.30 / aq-mode=3 / aq-strength=1.00 / cutree / zone-count=0 / no-strict-cbr / qg-size=32 / no-rc-grain / qpmax=69 / qpmin=0 / no-const-vbv / sar=0 / overscan=0 / videoformat=5 / range=0 / colorprim=2 / transfer=2 / colormatrix=2 / chromaloc=0 / display-window=0 / max-cll=0,0 / min-luma=0 / max-luma=1023 / log2-max-poc-lsb=8 / vui-timing-info / vui-hrd-info / slices=1 / no-opt-qp-pps / no-opt-ref-list-length-pps / no-multi-pass-opt-rps / scenecut-bias=0.05 / no-opt-cu-delta-qp / aq-motion / no-hdr / no-hdr-opt / no-dhdr10-opt / no-idr-recovery-sei / analysis-reuse-level=5 / scale-factor=0 / refine-intra=0 / refine-inter=0 / refine-mv=0 / no-limit-sao / ctu-info=0 / no-lowpass-dct / refine-mv-type=0 / copy-pic=1 / max-ausize-factor=1.0 / no-dynamic-refine / no-single-sei
Default : Yes
Forced : No

Audio
ID : 2
Format : AAC
Format/Info : Advanced Audio Codec
Format profile : LC
Codec ID : A_AAC
Duration : 23 min 39 s
Bit rate : 128 kb/s
Channel(s) : 2 channels
Channel positions : Front: L R
Sampling rate : 44.1 kHz
Frame rate : 43.066 FPS (1024 spf)
Compression mode : Lossy
Delay relative to video : 10 ms
Stream size : 21.7 MiB (8%)
Language : Japanese
Default : No
Forced : No

Subtitle
ID : 3
Format : ASS
Codec ID : S_TEXT/ASS
Codec ID/Info : Advanced Sub Station Alpha
Duration : 23 min 23 s
Bit rate : 119 b/s
Count of elements : 268
Compression mode : Lossless
Stream size : 20.4 KiB (0%)
Language : English
Default : Yes
Forced : No



Source Information

Code:

Release:
[HorribleSubs] Sword Art Online - Alicization - 05 [1080p]






   


Related Torrents
Browse Movies Torrents Related Torrents added recently in our database RSS  
Added  Size  Sort S  Sort L  Sort Health
Download Magnet English  Hasan_Minhaj:_Homecoming_King_(2017)_[WEBRip]_[1080p]_[YTS]____ in Movies, by YTSAGx 3 minutes 1.2 GB 55160 33545
Download Magnet English  Billboard_Hot_100_Singles_Chart,_15_December_2018_(2018) in Music, by Freak37 3 minutes 754.4 MB 26650 24432
Download Magnet English  [psychedelic_rock]_(2018)_VA_–_Try_a_Little_Sunshine;_The____ in Music, by sisyphus 3 minutes 1.1 GB 99221 1491
Download Magnet English  ZAYN_-_Icarus_Falls_(2018)_320_KBPS in Music, by Freak37 3 minutes 204.7 MB 36304 9236
Download Magnet English  Black_Ink_Crew_S07E13_WEB_x264-TBS in TV, by Trige 13 minutes 648.3 MB 17818 86454
Download Magnet English  Catfish_The_TV_Show_S07E21_720p_WEB_x264-TBS_[eztv] in TV, by EZTVag 13 minutes 852.8 MB 4453 33052
Download Magnet English  Black_Ink_Crew_S07E13_WEB_x264-TBS[TGx] in TV, by mazemaze16 13 minutes 650.6 MB 13185 76073
Download Magnet English  Catfish_The_TV_Show_S07E21_WEB_x264-TBS_[eztv] in TV, by EZTVag 13 minutes 542.4 MB 17690 44171
Download Magnet English  Catfish_The_TV_Show_S07E21_WEB_x264-TBS in TV, by Trige 13 minutes 542.4 MB 79478 35745
Download Magnet English  Catfish_The_TV_Show_S07E21_720p_WEB_x264-TBS in TV, by Trige 13 minutes 852.8 MB 72443 78339




Recent Searches

Home - Browse Torrents - Upload Torrent - Recent Torrents - Login - Register - FAQ

Can't load ExtraTorrent.Network
2006-2018 ExtraTorrent.Network